<?xml version="1.0" standalone="no"?>
<!DOCTYPE svg PUBLIC "-//W3C//DTD SVG 1.1//EN" "http://www.w3.org/Graphics/SVG/1.1/DTD/svg11.dtd" >
<svg xmlns="http://www.w3.org/2000/svg" xmlns:xlink="http://www.w3.org/1999/xlink" version="1.1">
<metadata>
Created by FontForge 20161013 at Sat Feb 11 11:42:35 2017
 By ,,,
Copyright (c) 2016. Arca Majora 3 is a trademark of Alfredo Marco Pradil. All rights reserved.
</metadata>
<defs>
<font id="ArcaMajora3-Heavy" horiz-adv-x="0" >
  <font-face 
    font-family="Arca Majora 3 Heavy"
    font-weight="700"
    font-stretch="normal"
    units-per-em="1000"
    panose-1="0 0 8 0 0 0 0 0 0 0"
    ascent="770"
    descent="-230"
    x-height="504"
    cap-height="770"
    bbox="-712 -297 1210 1257"
    underline-thickness="90"
    underline-position="-280"
    unicode-range="U+000D-F8FF"
  />
<missing-glyph horiz-adv-x="620" 
d="M94 770h432v-770h-432v770zM114 750v-730h392v730h-392z" />
    <glyph glyph-name=".notdef" horiz-adv-x="620" 
d="M94 770h432v-770h-432v770zM114 750v-730h392v730h-392z" />
    <glyph glyph-name=".null" 
 />
    <glyph glyph-name="nonmarkingreturn" horiz-adv-x="333" 
 />
    <glyph glyph-name="NULL" horiz-adv-x="20" 
 />
    <glyph glyph-name="NULL" horiz-adv-x="20" 
 />
    <glyph glyph-name="CR" unicode="&#xd;" horiz-adv-x="90" 
 />
    <glyph glyph-name="space" unicode=" " horiz-adv-x="280" 
 />
    <glyph glyph-name="exclam" unicode="!" horiz-adv-x="350" 
d="M104 247v523h140v-523h-140zM174 -10q-40 0 -68 27.5t-28 68.5q0 39 28 68t68 29q42 0 69.5 -29t27.5 -68q0 -41 -27.5 -68.5t-69.5 -27.5z" />
    <glyph glyph-name="quotedbl" unicode="&#x22;" horiz-adv-x="560" 
d="M105 423v347h120v-347h-120zM335 423v347h120v-347h-120z" />
    <glyph glyph-name="numbersign" unicode="#" horiz-adv-x="681" 
d="M126 0l21 155h-101l14 98h101l25 180h-101l14 98h100l22 155h107l-22 -155h121l22 155h107l-22 -155h101l-13 -98h-101l-25 -180h100l-12 -98h-102l-21 -155h-107l21 155h-121l-21 -155h-107zM268 253h121l25 180h-121z" />
    <glyph glyph-name="dollar" unicode="$" horiz-adv-x="559" 
d="M519 226q0 -88 -49 -149.5t-129 -79.5v-73h-130v74q-66 17 -114 62t-67 107l118 53q13 -50 47 -78t81 -28q51 0 82 29.5t31 79.5q0 47 -35 77t-103 62q-43 20 -66.5 34t-54 39.5t-45 60.5t-14.5 80q0 73 38.5 124t101.5 70v76h130v-73q53 -14 92.5 -50t56.5 -87l-112 -52
q-25 79 -94 79q-38 0 -61 -23t-23 -60q0 -10 2 -19.5t8 -18.5t10.5 -15.5t15.5 -14.5t17 -12.5t21 -12t21.5 -11t24.5 -12t24 -11.5q39 -19 64.5 -35t53.5 -43t42.5 -64.5t14.5 -84.5z" />
    <glyph glyph-name="percent" unicode="%" horiz-adv-x="801" 
d="M206 460q-64 0 -109.5 47t-45.5 113t45 113t110 47q64 0 109.5 -47t45.5 -113t-45 -113t-110 -47zM86 -1l483 771h144l-483 -771h-144zM206 561q27 0 43 17.5t16 41.5q0 25 -16.5 42t-42.5 17t-42.5 -17.5t-16.5 -41.5q0 -25 17 -42t42 -17zM595 -10q-66 0 -111 47
t-45 113t45 113t111 47t110.5 -47.5t44.5 -112.5t-45 -112.5t-110 -47.5zM595 91q25 0 42 17t17 42t-17 42t-42 17q-27 0 -43.5 -17.5t-16.5 -41.5q0 -25 17 -42t43 -17z" />
    <glyph glyph-name="ampersand" unicode="&#x26;" horiz-adv-x="744" 
d="M616 -3l-105 106l-28 -29q-72 -74 -176 -74t-176.5 73.5t-72.5 179.5t73 180l29 30q-36 53 -36 115q0 79 53.5 132t129.5 53q73 0 126 -51.5t53 -125.5q0 -66 -43 -114l-83 80q12 15 12 34q0 26 -20.5 42.5t-46.5 16.5q-28 0 -47.5 -20t-19.5 -49t20 -49l253 -257
l107 108l82 -83l-107 -108l105 -107zM307 118q55 0 95 42q14 12 27 27l-188 191q-37 -37 -52.5 -62.5t-15.5 -62.5q0 -57 39 -96t95 -39z" />
    <glyph glyph-name="quotesingle" unicode="'" horiz-adv-x="330" 
d="M105 423v347h120v-347h-120z" />
    <glyph glyph-name="parenleft" unicode="(" horiz-adv-x="363" 
d="M332 -122q-91 0 -157.5 75t-97 188t-30.5 244q0 132 30.5 244.5t97 187.5t157.5 75v-122q-49 0 -84.5 -57t-52 -142.5t-16.5 -185.5t16.5 -185.5t52 -142.5t84.5 -57v-122z" />
    <glyph glyph-name="parenright" unicode=")" horiz-adv-x="363" 
d="M41 -122v122q49 0 84.5 57t52 142.5t16.5 185.5t-16.5 185.5t-52 142.5t-84.5 57v122q91 0 157.5 -75t97 -187.5t30.5 -244.5q0 -131 -30.5 -244t-97 -188t-157.5 -75z" />
    <glyph glyph-name="asterisk" unicode="*" horiz-adv-x="474" 
d="M180 482l-64 37l83 113l-139 -15v73l139 -15l-83 113l64 37l57 -127l56 127l65 -37l-84 -113l140 15v-73l-140 15l84 -113l-65 -37l-56 127z" />
    <glyph glyph-name="plus" unicode="+" horiz-adv-x="657" 
d="M271 47v199h-214v114h214v200h114v-200h215v-114h-215v-199h-114z" />
    <glyph glyph-name="comma" unicode="," horiz-adv-x="329" 
d="M105 -136v297h153l-70 -297h-83z" />
    <glyph glyph-name="hyphen" unicode="-" horiz-adv-x="556" 
d="M74 242v114h408v-114h-408z" />
    <glyph glyph-name="period" unicode="." horiz-adv-x="357" 
d="M178 -10q-40 0 -68 27.5t-28 68.5q0 39 28 68t68 29q42 0 69.5 -29t27.5 -68q0 -41 -27.5 -68.5t-69.5 -27.5z" />
    <glyph glyph-name="slash" unicode="/" horiz-adv-x="551" 
d="M-4 -200l415 1000h144l-415 -1000h-144z" />
    <glyph glyph-name="zero" unicode="0" horiz-adv-x="634" 
d="M317 -12q-85 0 -146.5 56.5t-90.5 146t-29 199.5q0 172 69.5 281t196.5 109t196.5 -109t69.5 -281q0 -110 -29 -199.5t-90.5 -146t-146.5 -56.5zM317 117q71 0 103.5 78.5t32.5 194.5q0 72 -12 128t-44 94.5t-80 38.5t-80 -38.5t-44 -94.5t-12 -128q0 -116 32.5 -194.5
t103.5 -78.5z" />
    <glyph glyph-name="one" unicode="1" horiz-adv-x="376" 
d="M154 0v641h-133v129h264v-770h-131z" />
    <glyph glyph-name="two" unicode="2" horiz-adv-x="580" 
d="M22 0l352 467q22 29 22 68q0 47 -32.5 79t-79.5 32t-79.5 -32t-32.5 -79h-130q0 100 71.5 171t170.5 71t170.5 -71t71.5 -171q0 -82 -49 -147l-195 -258h249v-130h-509z" />
    <glyph glyph-name="three" unicode="3" horiz-adv-x="573" 
d="M438 435q93 -75 93 -193q0 -105 -74 -178.5t-178 -73.5t-178 73.5t-74 178.5h130q0 -51 36 -86.5t86 -35.5t86 35.5t36 86.5q0 49 -36 84.5t-86 35.5h-21v128h21q33 1 56.5 24.5t23.5 56.5t-23 56t-57 23q-33 0 -56.5 -23t-23.5 -56l-130 2q0 86 61.5 146.5t148.5 60.5
t148.5 -60.5t61.5 -146.5q0 -79 -51 -138z" />
    <glyph glyph-name="four" unicode="4" horiz-adv-x="617" 
d="M483 264h109v-129h-109v-135h-130v135h-323v142l296 493h157v-506zM157 264h196v337z" />
    <glyph glyph-name="five" unicode="5" horiz-adv-x="555" 
d="M260 495q105 0 179 -74t74 -179q0 -106 -74 -180t-179 -74q-81 0 -146 45.5t-92 119.5l122 49q13 -36 44.5 -58t71.5 -22q51 0 87 36t36 88q0 51 -36 87t-87 36q-55 0 -92 -40l-100 79l61 362h344v-129h-237l-23 -150q20 4 47 4z" />
    <glyph glyph-name="six" unicode="6" horiz-adv-x="565" 
d="M281 -12q-107 0 -178 76t-71 182q0 77 61 175l219 349h149l-166 -266q105 -6 171 -81t66 -179q0 -105 -73 -180.5t-178 -75.5zM282 118q52 0 88 37.5t36 90.5t-36 90.5t-88 37.5t-88 -37.5t-36 -90.5t36 -90.5t88 -37.5z" />
    <glyph glyph-name="seven" unicode="7" horiz-adv-x="582" 
d="M22 770h546l-331 -770h-148l287 641h-354v129z" />
    <glyph glyph-name="eight" unicode="8" horiz-adv-x="588" 
d="M452 435q94 -75 94 -193q0 -105 -74 -178.5t-178 -73.5t-178 73.5t-74 178.5q0 118 94 193q-52 58 -52 138q0 86 61.5 146.5t148.5 60.5t148.5 -60.5t61.5 -146.5q0 -80 -52 -138zM294 650q-33 0 -56.5 -23t-23.5 -56q0 -34 23.5 -57t56.5 -23t56.5 23t23.5 57
q0 33 -23 56t-57 23zM294 120q50 0 86 35.5t36 86.5q0 49 -36 84.5t-86 35.5t-86 -35.5t-36 -84.5q0 -51 36 -86.5t86 -35.5z" />
    <glyph glyph-name="nine" unicode="9" horiz-adv-x="565" 
d="M104 0l166 266q-104 6 -170.5 81.5t-66.5 179.5q0 105 72.5 180t178.5 75q102 0 175.5 -73.5t73.5 -171.5q0 -90 -61 -188l-219 -349h-149zM283 396q52 0 88 37.5t36 90.5t-36 90.5t-88 37.5t-88 -37.5t-36 -90.5t36 -90.5t88 -37.5z" />
    <glyph glyph-name="colon" unicode=":" horiz-adv-x="338" 
d="M168 413q-40 0 -68 27.5t-28 68.5q0 39 28 68t68 29q42 0 69.5 -29t27.5 -68q0 -41 -27.5 -68.5t-69.5 -27.5zM168 -10q-40 0 -68 27.5t-28 68.5q0 39 28 68t68 29q42 0 69.5 -29t27.5 -68q0 -41 -27.5 -68.5t-69.5 -27.5z" />
    <glyph glyph-name="semicolon" unicode=";" horiz-adv-x="342" 
d="M176 413q-40 0 -68 27.5t-28 68.5q0 39 28 68t68 29q42 0 69.5 -29t27.5 -68q0 -41 -27.5 -68.5t-69.5 -27.5zM100 -136v297h153l-50 -297h-103z" />
    <glyph glyph-name="less" unicode="&#x3c;" horiz-adv-x="531" 
d="M441 46l-386 205v89l386 188v-129l-216 -106l216 -114v-133z" />
    <glyph glyph-name="equal" unicode="=" horiz-adv-x="634" 
d="M113 362v114h408v-114h-408zM113 112v114h408v-114h-408z" />
    <glyph glyph-name="greater" unicode="&#x3e;" horiz-adv-x="530" 
d="M89 46v133l216 114l-216 106v129l386 -188v-89z" />
    <glyph glyph-name="question" unicode="?" horiz-adv-x="483" 
d="M173 246v69q0 42 14 75.5t34.5 55.5t41 42t34.5 43.5t14 50.5q0 37 -19.5 57.5t-50.5 20.5q-38 0 -57 -30t-19 -77h-129q0 100 54.5 163.5t147.5 63.5q88 0 145.5 -54.5t57.5 -133.5q0 -44 -14 -79.5t-34.5 -58.5t-41 -44t-34.5 -48t-14 -58v-58h-130zM238 -10
q-40 0 -68 27.5t-28 68.5q0 39 28 68t68 29q42 0 69.5 -29t27.5 -68q0 -41 -27.5 -68.5t-69.5 -27.5z" />
    <glyph glyph-name="at" unicode="@" horiz-adv-x="893" 
d="M671 476q-10 -50 -45 -223q-12 -60 -7 -82t32 -22q43 0 70.5 47t27.5 122q0 122 -77.5 194t-208.5 72q-136 0 -222.5 -88t-86.5 -227q0 -138 87 -223t227 -85q149 0 250 85l58 -78q-128 -105 -315 -105q-184 0 -301 114t-117 293q0 174 121.5 292.5t299.5 118.5
q171 0 278.5 -98.5t107.5 -256.5q0 -122 -60 -197.5t-157 -75.5q-79 0 -103 61q-50 -60 -128 -60q-74 0 -119.5 51t-45.5 134q0 105 64.5 178.5t158.5 73.5q71 0 108 -45l7 30h96zM532 299q2 99 -72 99q-47 0 -80 -47t-33 -115q0 -41 18.5 -64.5t51.5 -23.5q55 0 83.5 46.5
t31.5 104.5z" />
    <glyph glyph-name="A" unicode="A" horiz-adv-x="734" 
d="M570 0l-57 140h-292l-57 -140h-147l350 790l350 -790h-147zM271 262h192l-96 234z" />
    <glyph glyph-name="B" unicode="B" horiz-adv-x="677" 
d="M94 0v770h263q93 0 159 -65.5t66 -159.5q0 -77 -54 -134q52 -27 80.5 -77t28.5 -109q0 -93 -66 -159t-159 -66h-318zM224 446h133q39 0 67 27.5t28 68.5t-27.5 69.5t-67.5 28.5h-133v-194zM224 130h188q39 0 67 28.5t28 69.5q0 40 -27.5 68t-67.5 28h-188v-194z" />
    <glyph glyph-name="C" unicode="C" horiz-adv-x="681" 
d="M443 -10q-167 0 -283.5 115.5t-116.5 280.5t117 279.5t283 114.5q93 0 179 -45v-161q-83 74 -181 74q-111 0 -188.5 -76t-77.5 -187q0 -110 76.5 -186.5t188.5 -76.5q56 0 97.5 18t84.5 57v-162q-86 -45 -179 -45z" />
    <glyph glyph-name="D" unicode="D" horiz-adv-x="746" 
d="M94 0v770h224q160 0 272.5 -112.5t112.5 -272.5t-112.5 -272.5t-272.5 -112.5h-224zM224 130h94q107 0 181 74t74 181q0 106 -74 180.5t-181 74.5h-94v-510z" />
    <glyph glyph-name="E" unicode="E" horiz-adv-x="632" 
d="M94 0v770h480v-130h-350v-190h310v-130h-310v-190h350v-130h-480z" />
    <glyph glyph-name="F" unicode="F" horiz-adv-x="611" 
d="M94 0v770h480v-130h-350v-190h310v-130h-310v-320h-130z" />
    <glyph glyph-name="G" unicode="G" horiz-adv-x="781" 
d="M442 -10q-166 0 -282.5 115t-116.5 280t116.5 280t281.5 115q156 0 274 -112l-93 -93q-76 73 -181 73q-111 0 -188.5 -76t-77.5 -187q0 -110 77 -186.5t188 -76.5q87 0 156 51v147h-156v130h277v-356q-126 -104 -275 -104z" />
    <glyph glyph-name="H" unicode="H" horiz-adv-x="729" 
d="M94 0v770h130v-320h281v320h130v-770h-130v320h-281v-320h-130z" />
    <glyph glyph-name="I" unicode="I" horiz-adv-x="318" 
d="M94 0v770h130v-770h-130z" />
    <glyph glyph-name="J" unicode="J" horiz-adv-x="551" 
d="M253 -10q-95 0 -157 56.5t-62 142.5v105h130v-105q0 -32 25 -52t64 -20t64 20t25 52v581h130v-581q0 -86 -62 -142.5t-157 -56.5z" />
    <glyph glyph-name="K" unicode="K" horiz-adv-x="663" 
d="M642 0h-157l-261 407v-407h-130v770h130v-340l255 340h158l-269 -351z" />
    <glyph glyph-name="L" unicode="L" horiz-adv-x="539" 
d="M94 0v770h130v-640h290v-130h-420z" />
    <glyph glyph-name="M" unicode="M" horiz-adv-x="920" 
d="M94 0v790l366 -506l366 506v-790h-129v395l-237 -327l-236 327v-395h-130z" />
    <glyph glyph-name="N" unicode="N" horiz-adv-x="781" 
d="M687 -22l-463 495v-473h-130v790l463 -495v475h130v-792z" />
    <glyph glyph-name="O" unicode="O" horiz-adv-x="876" 
d="M438 -10q-165 0 -280 116.5t-115 278.5q0 165 116.5 280t278.5 115q165 0 280 -116.5t115 -278.5q0 -165 -116.5 -280t-278.5 -115zM438 120q109 0 187 77.5t78 187.5q0 109 -77.5 187t-187.5 78q-109 0 -187 -77.5t-78 -187.5q0 -109 77.5 -187t187.5 -78z" />
    <glyph glyph-name="P" unicode="P" horiz-adv-x="659" 
d="M94 0v770h287q104 0 173 -65t69 -177q0 -113 -69 -178t-173 -65h-157v-285h-130zM224 415h157q48 0 80 30t32 83q0 52 -32 82t-80 30h-157v-225z" />
    <glyph glyph-name="Q" unicode="Q" horiz-adv-x="876" 
d="M833 385q0 -149 -96 -258.5t-238 -131.5v-120h-122v120q-144 22 -239 133t-95 257q0 165 116.5 280t278.5 115q165 0 280 -116.5t115 -278.5zM499 127q88 21 146 92.5t58 165.5q0 109 -77.5 187t-187.5 78q-109 0 -187 -77.5t-78 -187.5q0 -93 57.5 -165t146.5 -93v127
h122v-127z" />
    <glyph glyph-name="R" unicode="R" horiz-adv-x="667" 
d="M647 0h-150l-158 285h-115v-285h-130v770h287q102 0 172 -68t70 -174q0 -81 -41.5 -141t-109.5 -86zM224 640v-225h147q55 0 88.5 29.5t33.5 83.5q0 53 -33.5 82.5t-88.5 29.5h-147z" />
    <glyph glyph-name="S" unicode="S" horiz-adv-x="559" 
d="M280 -10q-89 0 -157.5 49.5t-92.5 127.5l118 53q13 -50 47 -78t81 -28q51 0 82 29.5t31 79.5q0 47 -35 77t-103 62q-43 20 -66.5 34t-54 39.5t-45 60.5t-14.5 80q0 93 60 148.5t150 55.5q74 0 130.5 -39.5t78.5 -104.5l-112 -52q-25 79 -94 79q-38 0 -61 -23t-23 -60
q0 -10 2 -19.5t8 -18.5t10.5 -15.5t15.5 -14.5t17 -12.5t21 -12t21.5 -11t24.5 -12t24 -11.5q39 -19 64.5 -35t53.5 -43t42.5 -64.5t14.5 -84.5q0 -105 -68 -170.5t-171 -65.5z" />
    <glyph glyph-name="T" unicode="T" horiz-adv-x="575" 
d="M223 0v640h-198v130h525v-130h-197v-640h-130z" />
    <glyph glyph-name="U" unicode="U" horiz-adv-x="710" 
d="M79 770h130v-504q0 -62 42.5 -104t103.5 -42t103.5 42t42.5 104v504h130v-504q0 -115 -80.5 -195.5t-195.5 -80.5t-195.5 80.5t-80.5 195.5v504z" />
    <glyph glyph-name="V" unicode="V" horiz-adv-x="734" 
d="M367 -20l-350 790h154l196 -490l196 490h154z" />
    <glyph glyph-name="W" unicode="W" horiz-adv-x="1025" 
d="M1008 770l-350 -790l-145 328l-146 -328l-350 790h144l211 -501l77 183l-141 318h134l71 -167l70 167h134l-141 -318l77 -183l211 501h144z" />
    <glyph glyph-name="X" unicode="X" horiz-adv-x="712" 
d="M689 770l-241 -389l238 -381h-154l-176 282l-176 -282h-154l238 381l-241 389h154l179 -289l179 289h154z" />
    <glyph glyph-name="Y" unicode="Y" horiz-adv-x="632" 
d="M251 0v367l-237 403h161l141 -277l142 277h160l-237 -403v-367h-130z" />
    <glyph glyph-name="Z" unicode="Z" horiz-adv-x="671" 
d="M31 0l377 640h-359v130h586l-377 -640h377v-130h-604z" />
    <glyph glyph-name="bracketleft" unicode="[" horiz-adv-x="389" 
d="M92 -119l-3 1008h267v-119h-138l3 -770h138v-119h-267z" />
    <glyph glyph-name="backslash" unicode="\" horiz-adv-x="551" 
d="M411 -200l-415 1000h144l415 -1000h-144z" />
    <glyph glyph-name="bracketright" unicode="]" horiz-adv-x="389" 
d="M302 -119h-267v119h138l3 770h-138v119h267z" />
    <glyph glyph-name="asciicircum" unicode="^" horiz-adv-x="572" 
d="M46 274l188 496h89l205 -496h-133l-114 306l-106 -306h-129z" />
    <glyph glyph-name="underscore" unicode="_" horiz-adv-x="766" 
d="M104 0v115h558v-115h-558z" />
    <glyph glyph-name="grave" unicode="`" horiz-adv-x="283" 
d="M139 577l-130 117l113 80l130 -197h-113z" />
    <glyph glyph-name="a" unicode="a" horiz-adv-x="652" 
d="M283 -10q-103 0 -176 76.5t-73 186.5q0 109 73.5 186t175.5 77q105 0 164 -69v57h130v-504h-121l-3 65q-61 -75 -170 -75zM308 108q60 0 101.5 42.5t41.5 102.5t-41.5 102t-101.5 42q-61 0 -102.5 -42t-41.5 -102t42 -102.5t102 -42.5z" />
    <glyph glyph-name="b" unicode="b" horiz-adv-x="651" 
d="M367 -10q-106 0 -167 75l-3 -65h-121v770h130v-323q58 69 161 69q106 0 179 -76.5t73 -186.5t-73 -186.5t-179 -76.5zM345 105q61 0 102.5 43t41.5 105t-41.5 104.5t-102.5 42.5q-60 0 -102 -42.5t-42 -104.5t42 -105t102 -43z" />
    <glyph glyph-name="c" unicode="c" horiz-adv-x="464" 
d="M300 -10q-113 0 -190 76t-77 186t77 186t190 76q57 0 107 -22v-145q-41 49 -107 49q-61 0 -101.5 -41.5t-40.5 -102.5q0 -60 40.5 -101.5t101.5 -41.5q66 0 107 48v-145q-50 -22 -107 -22z" />
    <glyph glyph-name="d" unicode="d" horiz-adv-x="651" 
d="M284 -10q-106 0 -179 76.5t-73 186.5t73 186.5t179 76.5q103 0 161 -69v323h130v-770h-121l-3 65q-61 -75 -167 -75zM306 105q60 0 102 43t42 105t-42 104.5t-102 42.5q-61 0 -102.5 -42.5t-41.5 -104.5t41.5 -105t102.5 -43z" />
    <glyph glyph-name="e" unicode="e" horiz-adv-x="590" 
d="M558 257l-1 -28h-397q7 -61 46.5 -97.5t95.5 -36.5q87 0 129 73l104 -43q-31 -63 -92 -99t-140 -36q-118 0 -194 75.5t-76 186.5q0 110 75.5 186t190.5 76q110 0 184 -71.5t75 -185.5zM300 411q-91 0 -127 -83h247q-34 83 -120 83z" />
    <glyph glyph-name="f" unicode="f" horiz-adv-x="369" 
d="M101 0v399h-85v105h85v99q0 81 47 129t126 48q60 0 80 -16v-119q-24 19 -59 19q-29 0 -47 -21t-18 -55v-84h126v-105h-126v-399h-129z" />
    <glyph glyph-name="g" unicode="g" horiz-adv-x="654" 
d="M304 -240q-75 0 -141.5 32.5t-107.5 91.5l82 82q53 -95 160 -95q67 0 109 40.5t42 108.5v40q-57 -65 -157 -65q-110 0 -184 74t-74 183q0 110 74 186t182 76q101 0 159 -68v58h131v-474q0 -120 -78.5 -195t-196.5 -75zM307 107q60 0 102.5 42.5t42.5 102.5
q0 61 -42.5 103t-102.5 42q-61 0 -102.5 -42t-41.5 -103q0 -60 42 -102.5t102 -42.5z" />
    <glyph glyph-name="h" unicode="h" horiz-adv-x="584" 
d="M76 0v770h129v-312q56 56 132 56q78 0 131 -54.5t53 -133.5v-326h-130v312q0 37 -25.5 61.5t-63.5 24.5q-41 0 -68.5 -25t-28.5 -62v-311h-129z" />
    <glyph glyph-name="i" unicode="i" horiz-adv-x="278" 
d="M140 630q-31 0 -53.5 22t-22.5 53t22.5 53t53.5 22q32 0 54 -22t22 -53t-22 -53t-54 -22zM75 0v504h128v-504h-128z" />
    <glyph glyph-name="j" unicode="j" horiz-adv-x="281" 
d="M141 593q-32 0 -54.5 22t-22.5 53t22.5 53t54.5 22q31 0 53 -22t22 -53t-22 -53t-53 -22zM-44 -230v116h55q29 0 47 21t18 55v542h129v-557q0 -81 -47 -129t-126 -48h-76z" />
    <glyph glyph-name="k" unicode="k" horiz-adv-x="566" 
d="M557 504l-203 -220l203 -284h-167l-184 274v-274h-130v770h130v-478l184 212h167z" />
    <glyph glyph-name="l" unicode="l" horiz-adv-x="281" 
d="M76 0v770h129v-770h-129z" />
    <glyph glyph-name="m" unicode="m" horiz-adv-x="870" 
d="M75 0v504h130v-50q49 60 122 60q88 0 144 -79q53 79 150 79q80 0 133 -56t53 -139v-319h-130v309q0 38 -24 63.5t-60 25.5q-39 0 -63 -27.5t-24 -67.5v-303h-130v309q0 38 -24 63.5t-62 25.5t-61.5 -27.5t-23.5 -67.5v-303h-130z" />
    <glyph glyph-name="n" unicode="n" horiz-adv-x="583" 
d="M75 0v504h129v-46q56 56 135 56q76 0 128.5 -54.5t52.5 -133.5v-326h-130v310q0 39 -26 64.5t-65 25.5q-40 0 -67 -26t-28 -64v-310h-129z" />
    <glyph glyph-name="o" unicode="o" horiz-adv-x="598" 
d="M300 -10q-113 0 -190 76t-77 186t77 186t190 76q112 0 189 -76t77 -186t-77 -186t-189 -76zM300 110q58 0 99 41.5t41 100.5t-41 100t-99 41q-60 0 -101.5 -41t-41.5 -100t41.5 -100.5t101.5 -41.5z" />
    <glyph glyph-name="p" unicode="p" horiz-adv-x="647" 
d="M76 -230v734h130v-54q64 64 160 64q102 0 175 -76.5t73 -185.5t-73 -185.5t-175 -76.5q-96 0 -160 64v-284h-130zM342 108q59 0 101 42t42 102t-42 102t-101 42t-101.5 -42t-42.5 -102t42.5 -102t101.5 -42z" />
    <glyph glyph-name="q" unicode="q" horiz-adv-x="647" 
d="M441 -230v284q-64 -64 -160 -64q-102 0 -175 76.5t-73 185.5t73 185.5t175 76.5q96 0 160 -64v54h130v-734h-130zM305 108q59 0 101.5 42t42.5 102t-42.5 102t-101.5 42t-101 -42t-42 -102t42 -102t101 -42z" />
    <glyph glyph-name="r" unicode="r" horiz-adv-x="373" 
d="M358 386q-66 13 -110 -24t-44 -139v-223h-129v504h129v-71q48 81 136 81q12 0 18 -1v-127z" />
    <glyph glyph-name="s" unicode="s" horiz-adv-x="446" 
d="M226 -10q-62 0 -113.5 21t-84.5 54l73 89q56 -58 121 -58q29 0 46.5 13.5t17.5 34.5q0 6 -1.5 11t-4.5 9t-6.5 7.5t-10 7t-11.5 6t-14.5 6t-15.5 5.5l-18 6t-19 7q-70 25 -107 58t-37 93q0 73 53.5 113.5t131.5 40.5q108 0 173 -72l-76 -77q-49 49 -101 49
q-24 0 -38.5 -12t-14.5 -31q0 -22 20 -34t67 -27q5 -1 8 -2q34 -11 56.5 -22t46.5 -29t36 -45.5t12 -63.5q0 -75 -52 -116.5t-137 -41.5z" />
    <glyph glyph-name="t" unicode="t" horiz-adv-x="353" 
d="M112 0v399h-99v105h99v181h130v-181h98v-105h-98v-399h-130z" />
    <glyph glyph-name="u" unicode="u" horiz-adv-x="561" 
d="M280 -10q-102 0 -160 54t-58 145v315h130v-314q0 -42 24.5 -64.5t63.5 -22.5q40 0 64.5 22.5t24.5 64.5v314h130v-315q0 -92 -58 -145.5t-161 -53.5z" />
    <glyph glyph-name="v" unicode="v" horiz-adv-x="534" 
d="M267 -20l-264 524h139l125 -284l125 284h139z" />
    <glyph glyph-name="w" unicode="w" horiz-adv-x="811" 
d="M806 504l-240 -524l-160 354l-161 -354l-240 524h141l109 -263l101 263h99l101 -263l109 263h141z" />
    <glyph glyph-name="x" unicode="x" horiz-adv-x="595" 
d="M8 0l212 252l-212 252h156l133 -165l135 165h155l-212 -252l212 -252h-156l-133 164l-133 -164h-157z" />
    <glyph glyph-name="y" unicode="y" horiz-adv-x="553" 
d="M408 504h138l-294 -734h-134l93 236l-204 498h142l130 -346z" />
    <glyph glyph-name="z" unicode="z" horiz-adv-x="506" 
d="M22 0l253 399h-238v105h441l-254 -399h252v-105h-454z" />
    <glyph glyph-name="braceleft" unicode="{" horiz-adv-x="346" 
d="M229 -121q-57 0 -93.5 46t-36.5 109v192q0 64 -11 85t-64 45v92q48 22 61.5 47t13.5 83v158q0 65 37 110t93 45h83v-121q-50 0 -66 -7.5t-16 -36.5v-161q0 -107 -82 -163q82 -56 82 -163v-195q0 -30 16 -37t66 -7v-121h-83z" />
    <glyph glyph-name="bar" unicode="|" horiz-adv-x="346" 
d="M113 -177v977h120v-977h-120z" />
    <glyph glyph-name="braceright" unicode="}" horiz-adv-x="346" 
d="M126 -121h-83v121q50 0 66 7t16 37v195q0 107 82 163q-82 56 -82 163v161q0 29 -16 36.5t-66 7.5v121h83q56 0 93 -45t37 -110v-158q0 -58 13.5 -83t61.5 -47v-92q-53 -24 -64 -45t-11 -85v-192q0 -63 -36.5 -109t-93.5 -46z" />
    <glyph glyph-name="asciitilde" unicode="~" horiz-adv-x="693" 
d="M176 279l-110 46q82 166 177 166q34 0 100 -43.5t94 -43.5q56 0 82 94l107 -45q-43 -90 -83.5 -128.5t-91.5 -38.5q-31 0 -61 13t-102 58q-69 44 -112 -78z" />
    <glyph glyph-name="DEL" horiz-adv-x="90" 
 />
    <glyph glyph-name="uni00A0" unicode="&#xa0;" horiz-adv-x="90" 
 />
    <glyph glyph-name="dieresis" unicode="&#xa8;" horiz-adv-x="452" 
d="M125 606q-29 0 -49 20t-20 49q0 28 20.5 48t48.5 20t48 -20t20 -48t-20 -48.5t-48 -20.5zM327 606q-29 0 -49 20t-20 49q0 28 20.5 48t48.5 20t48 -20t20 -48t-20 -48.5t-48 -20.5z" />
    <glyph glyph-name="copyright" unicode="&#xa9;" horiz-adv-x="880" 
d="M440 0q-159 0 -268.5 109.5t-109.5 268.5t109.5 268.5t268.5 109.5t268.5 -109.5t109.5 -268.5t-109.5 -268.5t-268.5 -109.5zM440 67q129 0 220 90.5t91 220.5q0 129 -90.5 220t-220.5 91q-129 0 -220 -90.5t-91 -220.5q0 -129 90.5 -220t220.5 -91zM461 142
q-93 0 -162.5 70.5t-69.5 166.5q0 92 65 162t157 70q70 0 119 -26v-95q-44 43 -107 43q-67 0 -112 -46t-45 -109q0 -64 45.5 -109.5t111.5 -45.5q63 0 107 43v-95q-55 -29 -109 -29z" />
    <glyph glyph-name="registered" unicode="&#xae;" horiz-adv-x="680" 
d="M340 234q-59 0 -106 22q-49 20 -87 58q-35 35 -59 86q-21 51 -21 107t21 107q24 51 59 86q38 38 87 58q47 22 106 22t106 -22q49 -20 87 -58q35 -35 59 -86q21 -51 21 -107t-21 -107q-24 -51 -59 -86q-38 -38 -87 -58q-47 -22 -106 -22zM340 294q45 0 83 16q36 15 67 46
q33 33 46 68q17 35 17 83q0 46 -17 83q-14 36 -46 68q-31 31 -67 46q-38 16 -83 16t-84 -16q-36 -16 -66 -46q-32 -32 -46 -68q-17 -37 -17 -83q0 -48 17 -83q13 -35 46 -68q30 -30 66 -46q39 -16 84 -16zM255 362v285h112q35 0 59 -25q24 -24 24 -59q0 -27 -17 -50
q-16 -22 -44 -30l63 -121h-56l-59 118h-34v-118h-48zM303 528h64q12 0 25 10q10 13 10 25q0 15 -10 25q-11 11 -25 11h-64v-71z" />
    <glyph glyph-name="macron" unicode="&#xaf;" horiz-adv-x="466" 
d="M74 595v104h318v-104h-318z" />
    <glyph glyph-name="acute" unicode="&#xb4;" horiz-adv-x="285" 
d="M11 577l130 197l113 -80l-130 -117h-113z" />
    <glyph glyph-name="cedilla" unicode="&#xb8;" horiz-adv-x="295" 
d="M155 -43q44 -6 70.5 -36t26.5 -74q0 -48 -31 -79.5t-83 -31.5q-63 0 -101 42l44 59q22 -34 56 -34q18 0 30.5 12t12.5 32q0 22 -13 33.5t-31 11.5q-25 0 -37 -16l-46 46l62 86h85z" />
    <glyph glyph-name="Agrave" unicode="&#xc0;" horiz-adv-x="734" 
d="M423 843h-113l-110 87l93 80zM570 0l-57 140h-292l-57 -140h-147l350 790l350 -790h-147zM271 262h192l-96 234z" />
    <glyph glyph-name="Aacute" unicode="&#xc1;" horiz-adv-x="734" 
d="M543 954l-130 -107h-113l150 187zM570 0l-57 140h-292l-57 -140h-147l350 790l350 -790h-147zM271 262h192l-96 234z" />
    <glyph glyph-name="Acircumflex" unicode="&#xc2;" horiz-adv-x="734" 
d="M367 941l-68 -82h-104l110 157h124l110 -157h-104zM570 0l-57 140h-292l-57 -140h-147l350 790l350 -790h-147zM271 262h192l-96 234z" />
    <glyph glyph-name="Atilde" unicode="&#xc3;" horiz-adv-x="734" 
d="M294 883q-39 0 -52 -67l-94 39q33 132 136 132q34 0 60.5 -16.5t49 -32.5t45.5 -16q51 0 56 71l91 -37q-33 -134 -139 -134q-35 0 -63.5 15t-50 30.5t-39.5 15.5zM570 0l-57 140h-292l-57 -140h-147l350 790l350 -790h-147zM271 262h192l-96 234z" />
    <glyph glyph-name="Adieresis" unicode="&#xc4;" horiz-adv-x="734" 
d="M266 826q-28 0 -48.5 20t-20.5 49q0 28 20.5 48t48.5 20t48 -20t20 -48t-20 -48.5t-48 -20.5zM468 826q-28 0 -48.5 20t-20.5 49q0 28 20.5 48t48.5 20t48 -20t20 -48t-20 -48.5t-48 -20.5zM570 0l-57 140h-292l-57 -140h-147l350 790l350 -790h-147zM271 262h192
l-96 234z" />
    <glyph glyph-name="Aring" unicode="&#xc5;" horiz-adv-x="734" 
d="M570 0l-57 140h-292l-57 -140h-147l272 612q-37 20 -59 56.5t-22 81.5q0 65 45.5 111.5t112.5 46.5q65 0 111.5 -45.5t46.5 -112.5q0 -43 -21.5 -79.5t-57.5 -57.5l272 -613h-147zM366 825q-31 0 -53 -21.5t-22 -53.5q0 -31 21.5 -53t53.5 -22q31 0 53 21.5t22 53.5
q0 31 -21.5 53t-53.5 22zM271 262h192l-96 234z" />
    <glyph glyph-name="AE" unicode="&#xc6;" horiz-adv-x="1013" 
d="M955 640h-345v-195h305v-120h-305v-195h345v-130h-480v170h-233l-73 -170h-152l350 770h588v-130zM290 280h185v385h-19z" />
    <glyph glyph-name="Ccedilla" unicode="&#xc7;" horiz-adv-x="681" 
d="M441 648q-111 0 -188.5 -76t-77.5 -187q0 -110 76.5 -186.5t188.5 -76.5q56 0 97.5 18t84.5 57v-162q-72 -37 -142 -43l-31 -35q44 -6 70.5 -36t26.5 -74q0 -48 -31 -79.5t-83 -31.5q-63 0 -101 42l44 59q22 -34 56 -34q18 0 30.5 12t12.5 32q0 22 -13 33.5t-31 11.5
q-25 0 -37 -16l-46 46l51 70q-151 17 -253 129t-102 265q0 165 117 279.5t283 114.5q93 0 179 -45v-161q-83 74 -181 74z" />
    <glyph glyph-name="Egrave" unicode="&#xc8;" horiz-adv-x="632" 
d="M277 843l-110 87l93 80l130 -167h-113zM94 0v770h480v-130h-350v-190h310v-130h-310v-190h350v-130h-480z" />
    <glyph glyph-name="Eacute" unicode="&#xc9;" horiz-adv-x="632" 
d="M267 847l150 187l93 -80l-130 -107h-113zM94 0v770h480v-130h-350v-190h310v-130h-310v-190h350v-130h-480z" />
    <glyph glyph-name="Ecircumflex" unicode="&#xca;" horiz-adv-x="632" 
d="M162 859l110 157h124l110 -157h-104l-68 82l-68 -82h-104zM94 0v770h480v-130h-350v-190h310v-130h-310v-190h350v-130h-480z" />
    <glyph glyph-name="Edieresis" unicode="&#xcb;" horiz-adv-x="632" 
d="M233 826q-29 0 -49 20t-20 49q0 28 20.5 48t48.5 20t48 -20t20 -48t-20 -48.5t-48 -20.5zM435 826q-29 0 -49 20t-20 49q0 28 20.5 48t48.5 20t48 -20t20 -48t-20 -48.5t-48 -20.5zM94 0v770h480v-130h-350v-190h310v-130h-310v-190h350v-130h-480z" />
    <glyph glyph-name="Igrave" unicode="&#xcc;" horiz-adv-x="318" 
d="M102 843l-110 87l93 80l130 -167h-113zM94 0v770h130v-770h-130z" />
    <glyph glyph-name="Iacute" unicode="&#xcd;" horiz-adv-x="318" 
d="M92 847l150 187l93 -80l-130 -107h-113zM94 0v770h130v-770h-130z" />
    <glyph glyph-name="Icircumflex" unicode="&#xce;" horiz-adv-x="318" 
d="M-13 859l110 157h124l110 -157h-104l-68 82l-68 -82h-104zM94 0v770h130v-770h-130z" />
    <glyph glyph-name="Idieresis" unicode="&#xcf;" horiz-adv-x="318" 
d="M58 826q-28 0 -48.5 20t-20.5 49q0 28 20.5 48t48.5 20t48 -20t20 -48t-20 -48.5t-48 -20.5zM260 826q-28 0 -48.5 20t-20.5 49q0 28 20.5 48t48.5 20t48 -20t20 -48t-20 -48.5t-48 -20.5zM94 0v770h130v-770h-130z" />
    <glyph glyph-name="Eth" unicode="&#xd0;" horiz-adv-x="746" 
d="M318 770q160 0 272.5 -112.5t112.5 -272.5t-112.5 -272.5t-272.5 -112.5h-224v338h-77v94h77v338h224zM318 130q107 0 181 74t74 181q0 106 -74 180.5t-181 74.5h-94v-208h201v-94h-201v-208h94z" />
    <glyph glyph-name="Ntilde" unicode="&#xd1;" horiz-adv-x="781" 
d="M266 816l-94 39q33 132 136 132q34 0 60.5 -16.5t49 -32.5t45.5 -16q51 0 56 71l91 -37q-33 -134 -139 -134q-35 0 -63.5 15t-50 30.5t-39.5 15.5q-39 0 -52 -67zM687 -22l-463 495v-473h-130v790l463 -495v475h130v-792z" />
    <glyph glyph-name="Ograve" unicode="&#xd2;" horiz-adv-x="876" 
d="M381 843l-110 87l93 80l130 -167h-113zM438 -10q-165 0 -280 116.5t-115 278.5q0 165 116.5 280t278.5 115q165 0 280 -116.5t115 -278.5q0 -165 -116.5 -280t-278.5 -115zM438 120q109 0 187 77.5t78 187.5q0 109 -77.5 187t-187.5 78q-109 0 -187 -77.5t-78 -187.5
q0 -109 77.5 -187t187.5 -78z" />
    <glyph glyph-name="Oacute" unicode="&#xd3;" horiz-adv-x="876" 
d="M371 847l150 187l93 -80l-130 -107h-113zM438 -10q-165 0 -280 116.5t-115 278.5q0 165 116.5 280t278.5 115q165 0 280 -116.5t115 -278.5q0 -165 -116.5 -280t-278.5 -115zM438 120q109 0 187 77.5t78 187.5q0 109 -77.5 187t-187.5 78q-109 0 -187 -77.5t-78 -187.5
q0 -109 77.5 -187t187.5 -78z" />
    <glyph glyph-name="Ocircumflex" unicode="&#xd4;" horiz-adv-x="876" 
d="M266 859l110 157h124l110 -157h-104l-68 82l-68 -82h-104zM438 -10q-165 0 -280 116.5t-115 278.5q0 165 116.5 280t278.5 115q165 0 280 -116.5t115 -278.5q0 -165 -116.5 -280t-278.5 -115zM438 120q109 0 187 77.5t78 187.5q0 109 -77.5 187t-187.5 78
q-109 0 -187 -77.5t-78 -187.5q0 -109 77.5 -187t187.5 -78z" />
    <glyph glyph-name="Otilde" unicode="&#xd5;" horiz-adv-x="876" 
d="M313 816l-94 39q33 132 136 132q34 0 60.5 -16.5t49 -32.5t45.5 -16q51 0 56 71l91 -37q-33 -134 -139 -134q-35 0 -63.5 15t-50 30.5t-39.5 15.5q-39 0 -52 -67zM438 -10q-165 0 -280 116.5t-115 278.5q0 165 116.5 280t278.5 115q165 0 280 -116.5t115 -278.5
q0 -165 -116.5 -280t-278.5 -115zM438 120q109 0 187 77.5t78 187.5q0 109 -77.5 187t-187.5 78q-109 0 -187 -77.5t-78 -187.5q0 -109 77.5 -187t187.5 -78z" />
    <glyph glyph-name="Odieresis" unicode="&#xd6;" horiz-adv-x="876" 
d="M337 826q-29 0 -49 20t-20 49q0 28 20.5 48t48.5 20t48 -20t20 -48t-20 -48.5t-48 -20.5zM539 826q-29 0 -49 20t-20 49q0 28 20.5 48t48.5 20t48 -20t20 -48t-20 -48.5t-48 -20.5zM438 -10q-165 0 -280 116.5t-115 278.5q0 165 116.5 280t278.5 115q165 0 280 -116.5
t115 -278.5q0 -165 -116.5 -280t-278.5 -115zM438 120q109 0 187 77.5t78 187.5q0 109 -77.5 187t-187.5 78q-109 0 -187 -77.5t-78 -187.5q0 -109 77.5 -187t187.5 -78z" />
    <glyph glyph-name="multiply" unicode="&#xd7;" horiz-adv-x="571" 
d="M134 71l-80 81l151 151l-141 142l80 80l142 -141l152 152l80 -81l-152 -152l141 -141l-81 -80l-140 141z" />
    <glyph glyph-name="Oslash" unicode="&#xd8;" horiz-adv-x="876" 
d="M754 623q79 -106 79 -238q0 -165 -116.5 -280t-278.5 -115q-132 0 -238 79l-58 -58l-78 78l58 58q-79 106 -79 238q0 165 116.5 280t278.5 115q132 0 238 -79l58 58l78 -78zM173 385q0 -79 43 -144l366 366q-65 43 -144 43q-109 0 -187 -77.5t-78 -187.5zM438 120
q109 0 187 77.5t78 187.5q0 79 -43 144l-366 -366q65 -43 144 -43z" />
    <glyph glyph-name="Ugrave" unicode="&#xd9;" horiz-adv-x="710" 
d="M298 843l-110 87l93 80l130 -167h-113zM79 770h130v-504q0 -62 42.5 -104t103.5 -42t103.5 42t42.5 104v504h130v-504q0 -115 -80.5 -195.5t-195.5 -80.5t-195.5 80.5t-80.5 195.5v504z" />
    <glyph glyph-name="Uacute" unicode="&#xda;" horiz-adv-x="710" 
d="M288 847l150 187l93 -80l-130 -107h-113zM79 770h130v-504q0 -62 42.5 -104t103.5 -42t103.5 42t42.5 104v504h130v-504q0 -115 -80.5 -195.5t-195.5 -80.5t-195.5 80.5t-80.5 195.5v504z" />
    <glyph glyph-name="Ucircumflex" unicode="&#xdb;" horiz-adv-x="710" 
d="M183 859l110 157h124l110 -157h-104l-68 82l-68 -82h-104zM79 770h130v-504q0 -62 42.5 -104t103.5 -42t103.5 42t42.5 104v504h130v-504q0 -115 -80.5 -195.5t-195.5 -80.5t-195.5 80.5t-80.5 195.5v504z" />
    <glyph glyph-name="Udieresis" unicode="&#xdc;" horiz-adv-x="710" 
d="M254 826q-28 0 -48.5 20t-20.5 49q0 28 20.5 48t48.5 20t48 -20t20 -48t-20 -48.5t-48 -20.5zM456 826q-28 0 -48.5 20t-20.5 49q0 28 20.5 48t48.5 20t48 -20t20 -48t-20 -48.5t-48 -20.5zM79 770h130v-504q0 -62 42.5 -104t103.5 -42t103.5 42t42.5 104v504h130v-504
q0 -115 -80.5 -195.5t-195.5 -80.5t-195.5 80.5t-80.5 195.5v504z" />
    <glyph glyph-name="Yacute" unicode="&#xdd;" horiz-adv-x="632" 
d="M249 847l150 187l93 -80l-130 -107h-113zM251 0v367l-237 403h161l141 -277l142 277h160l-237 -403v-367h-130z" />
    <glyph glyph-name="Thorn" unicode="&#xde;" horiz-adv-x="655" 
d="M397 630q93 0 159 -65.5t66 -159.5q0 -93 -65.5 -159t-159.5 -66h-173v-180h-130v770h130v-140h173zM397 310q39 0 67 27.5t28 67.5q0 39 -27.5 67t-67.5 28h-173v-190h173z" />
    <glyph glyph-name="germandbls" unicode="&#xdf;" horiz-adv-x="619" 
d="M94 -1v596q0 90 57 137.5t145 47.5q86 0 140.5 -46t54.5 -130q0 -87 -60 -127q148 -56 148 -237q0 -120 -60 -183t-166 -63q-33 0 -67 6v128q32 -6 57 -6q53 0 78.5 29.5t25.5 93.5q0 162 -161 162v116q44 0 63.5 23.5t19.5 54.5q0 32 -19.5 49.5t-48.5 17.5
q-34 0 -54.5 -22t-20.5 -51v-596h-132z" />
    <glyph glyph-name="agrave" unicode="&#xe0;" horiz-adv-x="652" 
d="M276 577l-130 117l113 80l130 -197h-113zM283 -10q-103 0 -176 76.5t-73 186.5q0 109 73.5 186t175.5 77q105 0 164 -69v57h130v-504h-121l-3 65q-61 -75 -170 -75zM308 108q60 0 101.5 42.5t41.5 102.5t-41.5 102t-101.5 42q-61 0 -102.5 -42t-41.5 -102t42 -102.5
t102 -42.5z" />
    <glyph glyph-name="aacute" unicode="&#xe1;" horiz-adv-x="652" 
d="M266 581l130 197l113 -80l-130 -117h-113zM283 -10q-103 0 -176 76.5t-73 186.5q0 109 73.5 186t175.5 77q105 0 164 -69v57h130v-504h-121l-3 65q-61 -75 -170 -75zM308 108q60 0 101.5 42.5t41.5 102.5t-41.5 102t-101.5 42q-61 0 -102.5 -42t-41.5 -102t42 -102.5
t102 -42.5z" />
    <glyph glyph-name="acircumflex" unicode="&#xe2;" horiz-adv-x="652" 
d="M161 573l110 197h124l110 -197h-104l-68 122l-68 -122h-104zM283 -10q-103 0 -176 76.5t-73 186.5q0 109 73.5 186t175.5 77q105 0 164 -69v57h130v-504h-121l-3 65q-61 -75 -170 -75zM308 108q60 0 101.5 42.5t41.5 102.5t-41.5 102t-101.5 42q-61 0 -102.5 -42
t-41.5 -102t42 -102.5t102 -42.5z" />
    <glyph glyph-name="atilde" unicode="&#xe3;" horiz-adv-x="652" 
d="M208 560l-94 39q33 132 136 132q34 0 60.5 -16.5t49 -32.5t45.5 -16q51 0 56 71l91 -37q-33 -134 -139 -134q-35 0 -63.5 15t-50 30.5t-39.5 15.5q-39 0 -52 -67zM283 -10q-103 0 -176 76.5t-73 186.5q0 109 73.5 186t175.5 77q105 0 164 -69v57h130v-504h-121l-3 65
q-61 -75 -170 -75zM308 108q60 0 101.5 42.5t41.5 102.5t-41.5 102t-101.5 42q-61 0 -102.5 -42t-41.5 -102t42 -102.5t102 -42.5z" />
    <glyph glyph-name="adieresis" unicode="&#xe4;" horiz-adv-x="652" 
d="M232 610q-28 0 -48.5 20t-20.5 49q0 28 20.5 48t48.5 20t48 -20t20 -48t-20 -48.5t-48 -20.5zM434 610q-28 0 -48.5 20t-20.5 49q0 28 20.5 48t48.5 20t48 -20t20 -48t-20 -48.5t-48 -20.5zM283 -10q-103 0 -176 76.5t-73 186.5q0 109 73.5 186t175.5 77q105 0 164 -69
v57h130v-504h-121l-3 65q-61 -75 -170 -75zM308 108q60 0 101.5 42.5t41.5 102.5t-41.5 102t-101.5 42q-61 0 -102.5 -42t-41.5 -102t42 -102.5t102 -42.5z" />
    <glyph glyph-name="aring" unicode="&#xe5;" horiz-adv-x="652" 
d="M333 554q-65 0 -111.5 45.5t-46.5 112.5q0 65 45.5 111.5t112.5 46.5q65 0 111.5 -45.5t46.5 -112.5q0 -66 -46 -112t-112 -46zM333 637q31 0 53 21.5t22 53.5q0 31 -21.5 53t-53.5 22q-31 0 -53 -21.5t-22 -53.5q0 -31 21.5 -53t53.5 -22zM283 -10q-103 0 -176 76.5
t-73 186.5q0 109 73.5 186t175.5 77q105 0 164 -69v57h130v-504h-121l-3 65q-61 -75 -170 -75zM308 108q60 0 101.5 42.5t41.5 102.5t-41.5 102t-101.5 42q-61 0 -102.5 -42t-41.5 -102t42 -102.5t102 -42.5z" />
    <glyph glyph-name="ae" unicode="&#xe6;" horiz-adv-x="910" 
d="M877 229h-396v-6q8 -58 47 -93t94 -35q87 0 129 73l104 -43q-31 -63 -92 -99t-140 -36q-135 0 -211 94q-70 -94 -181 -94q-85 0 -141 44.5t-56 125.5q0 79 61 156h259v8q0 82 -101 82h-158v98h160q123 0 181 -59q74 69 183 69q110 0 184 -71.5t75 -185.5zM620 411
q-91 0 -127 -83h247q-34 83 -120 83zM237 90q74 0 117 74v64v1h-166q-24 -25 -24 -64q0 -75 73 -75z" />
    <glyph glyph-name="ccedilla" unicode="&#xe7;" horiz-adv-x="464" 
d="M300 396q-61 0 -101.5 -41.5t-40.5 -102.5q0 -60 40.5 -101.5t101.5 -41.5q66 0 107 48v-145q-40 -18 -88 -21l-30 -34q44 -6 70.5 -36t26.5 -74q0 -48 -31 -79.5t-83 -31.5q-63 0 -101 42l44 59q22 -34 56 -34q18 0 30.5 12t12.5 32q0 22 -13 33.5t-31 11.5
q-25 0 -37 -16l-46 46l53 74q-91 20 -149 91t-58 165q0 110 77 186t190 76q57 0 107 -22v-145q-41 49 -107 49z" />
    <glyph glyph-name="egrave" unicode="&#xe8;" horiz-adv-x="590" 
d="M345 577h-113l-130 117l113 80zM558 257l-1 -28h-397q7 -61 46.5 -97.5t95.5 -36.5q87 0 129 73l104 -43q-31 -63 -92 -99t-140 -36q-118 0 -194 75.5t-76 186.5q0 110 75.5 186t190.5 76q110 0 184 -71.5t75 -185.5zM300 411q-91 0 -127 -83h247q-34 83 -120 83z" />
    <glyph glyph-name="eacute" unicode="&#xe9;" horiz-adv-x="590" 
d="M465 698l-130 -117h-113l130 197zM558 257l-1 -28h-397q7 -61 46.5 -97.5t95.5 -36.5q87 0 129 73l104 -43q-31 -63 -92 -99t-140 -36q-118 0 -194 75.5t-76 186.5q0 110 75.5 186t190.5 76q110 0 184 -71.5t75 -185.5zM300 411q-91 0 -127 -83h247q-34 83 -120 83z" />
    <glyph glyph-name="ecircumflex" unicode="&#xea;" horiz-adv-x="590" 
d="M289 695l-68 -122h-104l110 197h124l110 -197h-104zM558 257l-1 -28h-397q7 -61 46.5 -97.5t95.5 -36.5q87 0 129 73l104 -43q-31 -63 -92 -99t-140 -36q-118 0 -194 75.5t-76 186.5q0 110 75.5 186t190.5 76q110 0 184 -71.5t75 -185.5zM300 411q-91 0 -127 -83h247
q-34 83 -120 83z" />
    <glyph glyph-name="edieresis" unicode="&#xeb;" horiz-adv-x="590" 
d="M188 610q-28 0 -48.5 20t-20.5 49q0 28 20.5 48t48.5 20t48 -20t20 -48t-20 -48.5t-48 -20.5zM390 610q-28 0 -48.5 20t-20.5 49q0 28 20.5 48t48.5 20t48 -20t20 -48t-20 -48.5t-48 -20.5zM558 257l-1 -28h-397q7 -61 46.5 -97.5t95.5 -36.5q87 0 129 73l104 -43
q-31 -63 -92 -99t-140 -36q-118 0 -194 75.5t-76 186.5q0 110 75.5 186t190.5 76q110 0 184 -71.5t75 -185.5zM300 411q-91 0 -127 -83h247q-34 83 -120 83z" />
    <glyph glyph-name="igrave" unicode="&#xec;" horiz-adv-x="278" 
d="M83 577l-130 117l113 80l130 -197h-113zM75 0v504h128v-504h-128z" />
    <glyph glyph-name="iacute" unicode="&#xed;" horiz-adv-x="278" 
d="M73 581l130 197l113 -80l-130 -117h-113zM75 0v504h128v-504h-128z" />
    <glyph glyph-name="icircumflex" unicode="&#xee;" horiz-adv-x="278" 
d="M-32 573l110 197h124l110 -197h-104l-68 122l-68 -122h-104zM75 0v504h128v-504h-128z" />
    <glyph glyph-name="idieresis" unicode="&#xef;" horiz-adv-x="278" 
d="M39 610q-29 0 -49 20t-20 49q0 28 20.5 48t48.5 20t48 -20t20 -48t-20 -48.5t-48 -20.5zM241 610q-29 0 -49 20t-20 49q0 28 20.5 48t48.5 20t48 -20t20 -48t-20 -48.5t-48 -20.5zM75 0v504h128v-504h-128z" />
    <glyph glyph-name="eth" unicode="&#xf0;" horiz-adv-x="566" 
d="M472 421q61 -98 61 -175q0 -106 -71 -182t-178 -76q-105 0 -178 75.5t-73 180.5q0 104 66 179t171 81l-59 94l-132 -48l-24 64l119 44l-70 112h149l43 -68l131 48l24 -64l-118 -43zM283 118q52 0 88 37.5t36 90.5t-36 90.5t-88 37.5t-88 -37.5t-36 -90.5t36 -90.5
t88 -37.5z" />
    <glyph glyph-name="ntilde" unicode="&#xf1;" horiz-adv-x="583" 
d="M164 560l-94 39q33 132 136 132q34 0 60.5 -16.5t49 -32.5t45.5 -16q51 0 56 71l91 -37q-33 -134 -139 -134q-35 0 -63.5 15t-50 30.5t-39.5 15.5q-39 0 -52 -67zM75 0v504h129v-46q56 56 135 56q76 0 128.5 -54.5t52.5 -133.5v-326h-130v310q0 39 -26 64.5t-65 25.5
q-40 0 -67 -26t-28 -64v-310h-129z" />
    <glyph glyph-name="ograve" unicode="&#xf2;" horiz-adv-x="598" 
d="M243 577l-130 117l113 80l130 -197h-113zM300 -10q-113 0 -190 76t-77 186t77 186t190 76q112 0 189 -76t77 -186t-77 -186t-189 -76zM300 110q58 0 99 41.5t41 100.5t-41 100t-99 41q-60 0 -101.5 -41t-41.5 -100t41.5 -100.5t101.5 -41.5z" />
    <glyph glyph-name="oacute" unicode="&#xf3;" horiz-adv-x="598" 
d="M233 581l130 197l113 -80l-130 -117h-113zM300 -10q-113 0 -190 76t-77 186t77 186t190 76q112 0 189 -76t77 -186t-77 -186t-189 -76zM300 110q58 0 99 41.5t41 100.5t-41 100t-99 41q-60 0 -101.5 -41t-41.5 -100t41.5 -100.5t101.5 -41.5z" />
    <glyph glyph-name="ocircumflex" unicode="&#xf4;" horiz-adv-x="598" 
d="M128 573l110 197h124l110 -197h-104l-68 122l-68 -122h-104zM300 -10q-113 0 -190 76t-77 186t77 186t190 76q112 0 189 -76t77 -186t-77 -186t-189 -76zM300 110q58 0 99 41.5t41 100.5t-41 100t-99 41q-60 0 -101.5 -41t-41.5 -100t41.5 -100.5t101.5 -41.5z" />
    <glyph glyph-name="otilde" unicode="&#xf5;" horiz-adv-x="598" 
d="M175 560l-94 39q33 132 136 132q34 0 60.5 -16.5t49 -32.5t45.5 -16q51 0 56 71l91 -37q-33 -134 -139 -134q-35 0 -63.5 15t-50 30.5t-39.5 15.5q-39 0 -52 -67zM300 -10q-113 0 -190 76t-77 186t77 186t190 76q112 0 189 -76t77 -186t-77 -186t-189 -76zM300 110
q58 0 99 41.5t41 100.5t-41 100t-99 41q-60 0 -101.5 -41t-41.5 -100t41.5 -100.5t101.5 -41.5z" />
    <glyph glyph-name="odieresis" unicode="&#xf6;" horiz-adv-x="598" 
d="M199 610q-29 0 -49 20t-20 49q0 28 20.5 48t48.5 20t48 -20t20 -48t-20 -48.5t-48 -20.5zM401 610q-29 0 -49 20t-20 49q0 28 20.5 48t48.5 20t48 -20t20 -48t-20 -48.5t-48 -20.5zM300 -10q-113 0 -190 76t-77 186t77 186t190 76q112 0 189 -76t77 -186t-77 -186
t-189 -76zM300 110q58 0 99 41.5t41 100.5t-41 100t-99 41q-60 0 -101.5 -41t-41.5 -100t41.5 -100.5t101.5 -41.5z" />
    <glyph glyph-name="divide" unicode="&#xf7;" horiz-adv-x="510" 
d="M255 411q-40 0 -68 27.5t-28 68.5q0 39 28 68t68 29q42 0 69.5 -29t27.5 -68q0 -41 -27.5 -68.5t-69.5 -27.5zM51 242v114h408v-114h-408zM255 -9q-40 0 -68 27.5t-28 68.5q0 39 28 68t68 29q42 0 69.5 -29t27.5 -68q0 -41 -27.5 -68.5t-69.5 -27.5z" />
    <glyph glyph-name="oslash" unicode="&#xf8;" horiz-adv-x="598" 
d="M574 469l-60 -60q52 -68 52 -157q0 -110 -77 -186t-189 -76q-87 0 -157 48l-61 -61l-57 57l60 60q-52 69 -52 158q0 110 77 186t190 76q86 0 156 -48l61 61zM157 252q0 -37 17 -68l193 192q-31 17 -67 17q-60 0 -101.5 -41t-41.5 -100zM440 252q0 35 -16 67l-192 -192
q31 -17 68 -17q58 0 99 41.5t41 100.5z" />
    <glyph glyph-name="ugrave" unicode="&#xf9;" horiz-adv-x="561" 
d="M224 577l-130 117l113 80l130 -197h-113zM280 -10q-102 0 -160 54t-58 145v315h130v-314q0 -42 24.5 -64.5t63.5 -22.5q40 0 64.5 22.5t24.5 64.5v314h130v-315q0 -92 -58 -145.5t-161 -53.5z" />
    <glyph glyph-name="uacute" unicode="&#xfa;" horiz-adv-x="561" 
d="M214 581l130 197l113 -80l-130 -117h-113zM280 -10q-102 0 -160 54t-58 145v315h130v-314q0 -42 24.5 -64.5t63.5 -22.5q40 0 64.5 22.5t24.5 64.5v314h130v-315q0 -92 -58 -145.5t-161 -53.5z" />
    <glyph glyph-name="ucircumflex" unicode="&#xfb;" horiz-adv-x="561" 
d="M109 573l110 197h124l110 -197h-104l-68 122l-68 -122h-104zM280 -10q-102 0 -160 54t-58 145v315h130v-314q0 -42 24.5 -64.5t63.5 -22.5q40 0 64.5 22.5t24.5 64.5v314h130v-315q0 -92 -58 -145.5t-161 -53.5z" />
    <glyph glyph-name="udieresis" unicode="&#xfc;" horiz-adv-x="561" 
d="M180 610q-28 0 -48.5 20t-20.5 49q0 28 20.5 48t48.5 20t48 -20t20 -48t-20 -48.5t-48 -20.5zM382 610q-28 0 -48.5 20t-20.5 49q0 28 20.5 48t48.5 20t48 -20t20 -48t-20 -48.5t-48 -20.5zM280 -10q-102 0 -160 54t-58 145v315h130v-314q0 -42 24.5 -64.5t63.5 -22.5
q40 0 64.5 22.5t24.5 64.5v314h130v-315q0 -92 -58 -145.5t-161 -53.5z" />
    <glyph glyph-name="yacute" unicode="&#xfd;" horiz-adv-x="553" 
d="M455 698l-130 -117h-113l130 197zM408 504h138l-294 -734h-134l93 236l-204 498h142l130 -346z" />
    <glyph glyph-name="thorn" unicode="&#xfe;" horiz-adv-x="647" 
d="M76 -230v1000h130v-320q64 64 160 64q102 0 175 -76.5t73 -185.5t-73 -185.5t-175 -76.5q-96 0 -160 64v-284h-130zM342 108q59 0 101 42t42 102t-42 102t-101 42t-101.5 -42t-42.5 -102t42.5 -102t101.5 -42z" />
    <glyph glyph-name="ydieresis" unicode="&#xff;" horiz-adv-x="553" 
d="M178 610q-28 0 -48.5 20t-20.5 49q0 28 20.5 48t48.5 20t48 -20t20 -48t-20 -48.5t-48 -20.5zM380 610q-28 0 -48.5 20t-20.5 49q0 28 20.5 48t48.5 20t48 -20t20 -48t-20 -48.5t-48 -20.5zM408 504h138l-294 -734h-134l93 236l-204 498h142l130 -346z" />
    <glyph glyph-name="Amacron" unicode="&#x100;" horiz-adv-x="734" 
d="M526 939v-104h-318v104h318zM570 0l-57 140h-292l-57 -140h-147l350 790l350 -790h-147zM271 262h192l-96 234z" />
    <glyph glyph-name="amacron" unicode="&#x101;" horiz-adv-x="652" 
d="M174 599v104h318v-104h-318zM283 -10q-103 0 -176 76.5t-73 186.5q0 109 73.5 186t175.5 77q105 0 164 -69v57h130v-504h-121l-3 65q-61 -75 -170 -75zM308 108q60 0 101.5 42.5t41.5 102.5t-41.5 102t-101.5 42q-61 0 -102.5 -42t-41.5 -102t42 -102.5t102 -42.5z" />
    <glyph glyph-name="Abreve" unicode="&#x102;" horiz-adv-x="734" 
d="M374 818q-79 0 -131.5 50.5t-52.5 126.5v25h99v-25q0 -32 22.5 -55t54.5 -23t55 23t23 55v25h99v-25q0 -73 -50 -125t-119 -52zM570 0l-57 140h-292l-57 -140h-147l350 790l350 -790h-147zM271 262h192l-96 234z" />
    <glyph glyph-name="abreve" unicode="&#x103;" horiz-adv-x="652" 
d="M340 572q-79 0 -131.5 50.5t-52.5 126.5v25h99v-25q0 -32 22.5 -55t54.5 -23t55 23t23 55v25h99v-25q0 -73 -50 -125t-119 -52zM283 -10q-103 0 -176 76.5t-73 186.5q0 109 73.5 186t175.5 77q105 0 164 -69v57h130v-504h-121l-3 65q-61 -75 -170 -75zM308 108
q60 0 101.5 42.5t41.5 102.5t-41.5 102t-101.5 42q-61 0 -102.5 -42t-41.5 -102t42 -102.5t102 -42.5z" />
    <glyph glyph-name="Aogonek" unicode="&#x104;" horiz-adv-x="734" 
d="M700 -106l63 -71q-48 -57 -118 -57q-50 0 -85.5 32t-35.5 85q0 74 67 117h-21l-57 140h-292l-57 -140h-147l350 790l350 -790q-56 -6 -83.5 -32.5t-27.5 -59.5q0 -21 11 -32t28 -11q30 0 55 29zM271 262h192l-96 234z" />
    <glyph glyph-name="aogonek" unicode="&#x105;" horiz-adv-x="652" 
d="M562 -106l63 -71q-48 -57 -118 -57q-50 0 -85.5 32t-35.5 85q0 76 70 119l-3 63q-61 -75 -170 -75q-103 0 -176 76.5t-73 186.5q0 109 73.5 186t175.5 77q105 0 164 -69v57h130v-503l2 -1q-56 -6 -83.5 -32.5t-27.5 -59.5q0 -21 11 -32t28 -11q30 0 55 29zM308 108
q60 0 101.5 42.5t41.5 102.5t-41.5 102t-101.5 42q-61 0 -102.5 -42t-41.5 -102t42 -102.5t102 -42.5z" />
    <glyph glyph-name="Cacute" unicode="&#x106;" horiz-adv-x="681" 
d="M354 847l150 187l93 -80l-130 -107h-113zM443 -10q-167 0 -283.5 115.5t-116.5 280.5t117 279.5t283 114.5q93 0 179 -45v-161q-83 74 -181 74q-111 0 -188.5 -76t-77.5 -187q0 -110 76.5 -186.5t188.5 -76.5q56 0 97.5 18t84.5 57v-162q-86 -45 -179 -45z" />
    <glyph glyph-name="cacute" unicode="&#x107;" horiz-adv-x="464" 
d="M213 581l130 197l113 -80l-130 -117h-113zM300 -10q-113 0 -190 76t-77 186t77 186t190 76q57 0 107 -22v-145q-41 49 -107 49q-61 0 -101.5 -41.5t-40.5 -102.5q0 -60 40.5 -101.5t101.5 -41.5q66 0 107 48v-145q-50 -22 -107 -22z" />
    <glyph glyph-name="Cdotaccent" unicode="&#x10a;" horiz-adv-x="681" 
d="M421 822q-29 0 -49 20t-20 49q0 28 20.5 48t48.5 20t48 -20t20 -48t-20 -48.5t-48 -20.5zM443 -10q-167 0 -283.5 115.5t-116.5 280.5t117 279.5t283 114.5q93 0 179 -45v-161q-83 74 -181 74q-111 0 -188.5 -76t-77.5 -187q0 -110 76.5 -186.5t188.5 -76.5q56 0 97.5 18
t84.5 57v-162q-86 -45 -179 -45z" />
    <glyph glyph-name="cdotaccent" unicode="&#x10b;" horiz-adv-x="464" 
d="M280 630q-31 0 -53.5 22t-22.5 53t22.5 53t53.5 22q32 0 54 -22t22 -53t-22 -53t-54 -22zM300 -10q-113 0 -190 76t-77 186t77 186t190 76q57 0 107 -22v-145q-41 49 -107 49q-61 0 -101.5 -41.5t-40.5 -102.5q0 -60 40.5 -101.5t101.5 -41.5q66 0 107 48v-145
q-50 -22 -107 -22z" />
    <glyph glyph-name="Ccaron" unicode="&#x10c;" horiz-adv-x="681" 
d="M359 849l-110 167h104l68 -92l68 92h104l-110 -167h-124zM443 -10q-167 0 -283.5 115.5t-116.5 280.5t117 279.5t283 114.5q93 0 179 -45v-161q-83 74 -181 74q-111 0 -188.5 -76t-77.5 -187q0 -110 76.5 -186.5t188.5 -76.5q56 0 97.5 18t84.5 57v-162q-86 -45 -179 -45
z" />
    <glyph glyph-name="ccaron" unicode="&#x10d;" horiz-adv-x="464" 
d="M218 573l-110 197h104l68 -122l68 122h104l-110 -197h-124zM300 -10q-113 0 -190 76t-77 186t77 186t190 76q57 0 107 -22v-145q-41 49 -107 49q-61 0 -101.5 -41.5t-40.5 -102.5q0 -60 40.5 -101.5t101.5 -41.5q66 0 107 48v-145q-50 -22 -107 -22z" />
    <glyph glyph-name="Dcaron" unicode="&#x10e;" horiz-adv-x="746" 
d="M302 849l-110 167h104l68 -92l68 92h104l-110 -167h-124zM94 0v770h224q160 0 272.5 -112.5t112.5 -272.5t-112.5 -272.5t-272.5 -112.5h-224zM224 130h94q107 0 181 74t74 181q0 106 -74 180.5t-181 74.5h-94v-510z" />
    <glyph glyph-name="dcaron" unicode="&#x10f;" horiz-adv-x="759" 
d="M286 -10q-106 0 -179 76.5t-73 186.5t73 186.5t179 76.5q103 0 161 -69v323h130v-770h-121l-3 65q-61 -75 -167 -75zM664 473l30 297h153l-100 -297h-83zM308 105q60 0 102 43t42 105t-42 104.5t-102 42.5q-61 0 -102.5 -42.5t-41.5 -104.5t41.5 -105t102.5 -43z" />
    <glyph glyph-name="Dcroat" unicode="&#x110;" horiz-adv-x="746" 
d="M318 770q160 0 272.5 -112.5t112.5 -272.5t-112.5 -272.5t-272.5 -112.5h-224v338h-77v94h77v338h224zM318 130q107 0 181 74t74 181q0 106 -74 180.5t-181 74.5h-94v-208h201v-94h-201v-208h94z" />
    <glyph glyph-name="dcroat" unicode="&#x111;" horiz-adv-x="651" 
d="M625 692v-94h-50v-598h-121l-3 65q-61 -75 -167 -75t-179 76.5t-73 186.5t73 186.5t179 76.5q103 0 161 -69v151h-228v94h228v78h130v-78h50zM306 105q60 0 102 43t42 105t-42 104.5t-102 42.5q-61 0 -102.5 -42.5t-41.5 -104.5t41.5 -105t102.5 -43z" />
    <glyph glyph-name="Emacron" unicode="&#x112;" horiz-adv-x="632" 
d="M175 835v104h318v-104h-318zM94 0v770h480v-130h-350v-190h310v-130h-310v-190h350v-130h-480z" />
    <glyph glyph-name="emacron" unicode="&#x113;" horiz-adv-x="590" 
d="M448 703v-104h-318v104h318zM558 257l-1 -28h-397q7 -61 46.5 -97.5t95.5 -36.5q87 0 129 73l104 -43q-31 -63 -92 -99t-140 -36q-118 0 -194 75.5t-76 186.5q0 110 75.5 186t190.5 76q110 0 184 -71.5t75 -185.5zM300 411q-91 0 -127 -83h247q-34 83 -120 83z" />
    <glyph glyph-name="Edotaccent" unicode="&#x116;" horiz-adv-x="632" 
d="M334 822q-28 0 -48.5 20t-20.5 49q0 28 20.5 48t48.5 20t48 -20t20 -48t-20 -48.5t-48 -20.5zM94 0v770h480v-130h-350v-190h310v-130h-310v-190h350v-130h-480z" />
    <glyph glyph-name="edotaccent" unicode="&#x117;" horiz-adv-x="590" 
d="M289 630q-31 0 -53.5 22t-22.5 53t22.5 53t53.5 22q32 0 54 -22t22 -53t-22 -53t-54 -22zM558 257l-1 -28h-397q7 -61 46.5 -97.5t95.5 -36.5q87 0 129 73l104 -43q-31 -63 -92 -99t-140 -36q-118 0 -194 75.5t-76 186.5q0 110 75.5 186t190.5 76q110 0 184 -71.5
t75 -185.5zM300 411q-91 0 -127 -83h247q-34 83 -120 83z" />
    <glyph glyph-name="Eogonek" unicode="&#x118;" horiz-adv-x="632" 
d="M557 -106l63 -71q-48 -57 -118 -57q-50 0 -85.5 32t-35.5 85q0 74 67 117h-354v770h480v-130h-350v-190h310v-130h-310v-190h350v-130q-56 -6 -83.5 -32.5t-27.5 -59.5q0 -21 11 -32t28 -11q30 0 55 29z" />
    <glyph glyph-name="eogonek" unicode="&#x119;" horiz-adv-x="590" 
d="M558 257l-1 -28h-397q7 -61 46.5 -97.5t95.5 -36.5q87 0 129 73l104 -43q-31 -63 -92 -99t-140 -36h-6q-45 -27 -45 -72q0 -21 11 -32t28 -11q30 0 55 29l63 -71q-48 -57 -118 -57q-50 0 -85.5 32t-35.5 85q0 66 53 107q-86 24 -138 93t-52 159q0 110 75.5 186t190.5 76
q110 0 184 -71.5t75 -185.5zM300 411q-91 0 -127 -83h247q-34 83 -120 83z" />
    <glyph glyph-name="Ecaron" unicode="&#x11a;" horiz-adv-x="632" 
d="M272 849l-110 167h104l68 -92l68 92h104l-110 -167h-124zM94 0v770h480v-130h-350v-190h310v-130h-310v-190h350v-130h-480z" />
    <glyph glyph-name="ecaron" unicode="&#x11b;" horiz-adv-x="590" 
d="M351 573h-124l-110 197h104l68 -122l68 122h104zM558 257l-1 -28h-397q7 -61 46.5 -97.5t95.5 -36.5q87 0 129 73l104 -43q-31 -63 -92 -99t-140 -36q-118 0 -194 75.5t-76 186.5q0 110 75.5 186t190.5 76q110 0 184 -71.5t75 -185.5zM300 411q-91 0 -127 -83h247
q-34 83 -120 83z" />
    <glyph glyph-name="Gbreve" unicode="&#x11e;" horiz-adv-x="781" 
d="M415 818q-79 0 -131.5 50.5t-52.5 126.5v25h99v-25q0 -32 22.5 -55t54.5 -23t55 23t23 55v25h99v-25q0 -73 -50 -125t-119 -52zM442 -10q-166 0 -282.5 115t-116.5 280t116.5 280t281.5 115q156 0 274 -112l-93 -93q-76 73 -181 73q-111 0 -188.5 -76t-77.5 -187
q0 -110 77 -186.5t188 -76.5q87 0 156 51v147h-156v130h277v-356q-126 -104 -275 -104z" />
    <glyph glyph-name="gbreve" unicode="&#x11f;" horiz-adv-x="654" 
d="M333 572q-79 0 -131.5 50.5t-52.5 126.5v25h99v-25q0 -32 22.5 -55t54.5 -23t55 23t23 55v25h99v-25q0 -73 -50 -125t-119 -52zM304 -240q-75 0 -141.5 32.5t-107.5 91.5l82 82q53 -95 160 -95q67 0 109 40.5t42 108.5v40q-57 -65 -157 -65q-110 0 -184 74t-74 183
q0 110 74 186t182 76q101 0 159 -68v58h131v-474q0 -120 -78.5 -195t-196.5 -75zM307 107q60 0 102.5 42.5t42.5 102.5q0 61 -42.5 103t-102.5 42q-61 0 -102.5 -42t-41.5 -103q0 -60 42 -102.5t102 -42.5z" />
    <glyph glyph-name="Gdotaccent" unicode="&#x120;" horiz-adv-x="781" 
d="M408 822q-28 0 -48.5 20t-20.5 49q0 28 20.5 48t48.5 20t48 -20t20 -48t-20 -48.5t-48 -20.5zM442 -10q-166 0 -282.5 115t-116.5 280t116.5 280t281.5 115q156 0 274 -112l-93 -93q-76 73 -181 73q-111 0 -188.5 -76t-77.5 -187q0 -110 77 -186.5t188 -76.5q87 0 156 51
v147h-156v130h277v-356q-126 -104 -275 -104z" />
    <glyph glyph-name="gdotaccent" unicode="&#x121;" horiz-adv-x="654" 
d="M326 630q-31 0 -53.5 22t-22.5 53t22.5 53t53.5 22q32 0 54 -22t22 -53t-22 -53t-54 -22zM304 -240q-75 0 -141.5 32.5t-107.5 91.5l82 82q53 -95 160 -95q67 0 109 40.5t42 108.5v40q-57 -65 -157 -65q-110 0 -184 74t-74 183q0 110 74 186t182 76q101 0 159 -68v58h131
v-474q0 -120 -78.5 -195t-196.5 -75zM307 107q60 0 102.5 42.5t42.5 102.5q0 61 -42.5 103t-102.5 42q-61 0 -102.5 -42t-41.5 -103q0 -60 42 -102.5t102 -42.5z" />
    <glyph glyph-name="Gcommaaccent" unicode="&#x122;" horiz-adv-x="781" 
d="M442 -10q-166 0 -282.5 115t-116.5 280t116.5 280t281.5 115q156 0 274 -112l-93 -93q-76 73 -181 73q-111 0 -188.5 -76t-77.5 -187q0 -110 77 -186.5t188 -76.5q87 0 156 51v147h-156v130h277v-356q-126 -104 -275 -104zM376 -297l30 227h133l-110 -227h-53z" />
    <glyph glyph-name="gcommaaccent" unicode="&#x123;" horiz-adv-x="654" 
d="M249 589l80 247h73v-247h-153zM304 -240q-75 0 -141.5 32.5t-107.5 91.5l82 82q53 -95 160 -95q67 0 109 40.5t42 108.5v40q-57 -65 -157 -65q-110 0 -184 74t-74 183q0 110 74 186t182 76q101 0 159 -68v58h131v-474q0 -120 -78.5 -195t-196.5 -75zM307 107
q60 0 102.5 42.5t42.5 102.5q0 61 -42.5 103t-102.5 42q-61 0 -102.5 -42t-41.5 -103q0 -60 42 -102.5t102 -42.5z" />
    <glyph glyph-name="Hbar" unicode="&#x126;" horiz-adv-x="729" 
d="M684 675v-104h-49v-571h-130v320h-281v-320h-130v571h-48v104h48v95h130v-95h281v95h130v-95h49zM505 450v121h-281v-121h281z" />
    <glyph glyph-name="hbar" unicode="&#x127;" horiz-adv-x="584" 
d="M337 514q78 0 131 -54.5t53 -133.5v-326h-130v312q0 37 -25.5 61.5t-63.5 24.5q-41 0 -68.5 -25t-28.5 -62v-311h-129v602h-65v94h65v74h129v-74h214v-94h-214v-144q56 56 132 56z" />
    <glyph glyph-name="Itilde" unicode="&#x128;" horiz-adv-x="318" 
d="M34 816l-94 39q33 132 136 132q34 0 60.5 -16.5t49 -32.5t45.5 -16q51 0 56 71l91 -37q-33 -134 -139 -134q-35 0 -63.5 15t-50 30.5t-39.5 15.5q-39 0 -52 -67zM94 0v770h130v-770h-130z" />
    <glyph glyph-name="itilde" unicode="&#x129;" horiz-adv-x="278" 
d="M15 560l-94 39q33 132 136 132q34 0 60.5 -16.5t49 -32.5t45.5 -16q51 0 56 71l91 -37q-33 -134 -139 -134q-35 0 -63.5 15t-50 30.5t-39.5 15.5q-39 0 -52 -67zM75 0v504h128v-504h-128z" />
    <glyph glyph-name="Imacron" unicode="&#x12a;" horiz-adv-x="318" 
d="M0 835v104h318v-104h-318zM94 0v770h130v-770h-130z" />
    <glyph glyph-name="imacron" unicode="&#x12b;" horiz-adv-x="278" 
d="M-19 599v104h318v-104h-318zM75 0v504h128v-504h-128z" />
    <glyph glyph-name="Iogonek" unicode="&#x12e;" horiz-adv-x="318" 
d="M207 -106l63 -71q-48 -57 -118 -57q-50 0 -85.5 32t-35.5 85q0 74 67 117h-4v770h130v-770q-56 -6 -83.5 -32.5t-27.5 -59.5q0 -21 11 -32t28 -11q30 0 55 29z" />
    <glyph glyph-name="iogonek" unicode="&#x12f;" horiz-adv-x="278" 
d="M140 630q-31 0 -53.5 22t-22.5 53t22.5 53t53.5 22q32 0 54 -22t22 -53t-22 -53t-54 -22zM186 -106l63 -71q-48 -57 -118 -57q-50 0 -85.5 32t-35.5 85q0 74 67 117h-2v504h128v-504q-56 -6 -83.5 -32.5t-27.5 -59.5q0 -21 11 -32t28 -11q30 0 55 29z" />
    <glyph glyph-name="Idotaccent" unicode="&#x130;" horiz-adv-x="318" 
d="M159 822q-29 0 -49 20t-20 49q0 28 20.5 48t48.5 20t48 -20t20 -48t-20 -48.5t-48 -20.5zM94 0v770h130v-770h-130z" />
    <glyph glyph-name="dotlessi" unicode="&#x131;" horiz-adv-x="278" 
d="M75 0v504h128v-504h-128z" />
    <glyph glyph-name="Kcommaaccent" unicode="&#x136;" horiz-adv-x="663" 
d="M368 419l274 -419h-157l-261 407v-407h-130v770h130v-340l255 340h158zM216 -297l30 227h133l-110 -227h-53z" />
    <glyph glyph-name="kcommaaccent" unicode="&#x137;" horiz-adv-x="566" 
d="M557 504l-203 -220l203 -284h-167l-184 274v-274h-130v770h130v-478l184 212h167zM184 -297l30 227h133l-110 -227h-53z" />
    <glyph glyph-name="Lacute" unicode="&#x139;" horiz-adv-x="539" 
d="M92 847l150 187l93 -80l-130 -107h-113zM94 0v770h130v-640h290v-130h-420z" />
    <glyph glyph-name="lacute" unicode="&#x13a;" horiz-adv-x="281" 
d="M74 847l130 197l113 -80l-130 -117h-113zM76 0v770h129v-770h-129z" />
    <glyph glyph-name="Lcommaaccent" unicode="&#x13b;" horiz-adv-x="539" 
d="M94 0v770h130v-640h290v-130h-420zM207 -297l30 227h133l-110 -227h-53z" />
    <glyph glyph-name="lcommaaccent" unicode="&#x13c;" horiz-adv-x="281" 
d="M76 0v770h129v-770h-129zM44 -297l30 227h133l-110 -227h-53z" />
    <glyph glyph-name="Lcaron" unicode="&#x13d;" horiz-adv-x="554" 
d="M94 0v770h130v-640h290v-130h-420zM351 473v297h133l-50 -297h-83z" />
    <glyph glyph-name="lcaron" unicode="&#x13e;" horiz-adv-x="390" 
d="M76 0v770h129v-770h-129zM372 473h-83l30 297h153z" />
    <glyph glyph-name="Lslash" unicode="&#x141;" horiz-adv-x="539" 
d="M224 130h290v-130h-420v305l-62 -23l-35 93l97 35v360h130v-312l80 29l35 -93l-115 -42v-222z" />
    <glyph glyph-name="lslash" unicode="&#x142;" horiz-adv-x="281" 
d="M312 409l-107 -39v-370h-129v323l-71 -26l-35 93l106 39v341h129v-294l72 26z" />
    <glyph glyph-name="Nacute" unicode="&#x143;" horiz-adv-x="781" 
d="M324 847l150 187l93 -80l-130 -107h-113zM687 -22l-463 495v-473h-130v790l463 -495v475h130v-792z" />
    <glyph glyph-name="nacute" unicode="&#x144;" horiz-adv-x="583" 
d="M222 581l130 197l113 -80l-130 -117h-113zM75 0v504h129v-46q56 56 135 56q76 0 128.5 -54.5t52.5 -133.5v-326h-130v310q0 39 -26 64.5t-65 25.5q-40 0 -67 -26t-28 -64v-310h-129z" />
    <glyph glyph-name="Ncommaaccent" unicode="&#x145;" horiz-adv-x="781" 
d="M687 -22l-463 495v-473h-130v790l463 -495v475h130v-792zM294 -297l30 227h133l-110 -227h-53z" />
    <glyph glyph-name="ncommaaccent" unicode="&#x146;" horiz-adv-x="583" 
d="M75 0v504h129v-46q56 56 135 56q76 0 128.5 -54.5t52.5 -133.5v-326h-130v310q0 39 -26 64.5t-65 25.5q-40 0 -67 -26t-28 -64v-310h-129zM192 -297l30 227h133l-110 -227h-53z" />
    <glyph glyph-name="Ncaron" unicode="&#x147;" horiz-adv-x="781" 
d="M329 849l-110 167h104l68 -92l68 92h104l-110 -167h-124zM687 -22l-463 495v-473h-130v790l463 -495v475h130v-792z" />
    <glyph glyph-name="ncaron" unicode="&#x148;" horiz-adv-x="583" 
d="M227 573l-110 197h104l68 -122l68 122h104l-110 -197h-124zM75 0v504h129v-46q56 56 135 56q76 0 128.5 -54.5t52.5 -133.5v-326h-130v310q0 39 -26 64.5t-65 25.5q-40 0 -67 -26t-28 -64v-310h-129z" />
    <glyph glyph-name="Eng" unicode="&#x14a;" horiz-adv-x="781" 
d="M557 770h130v-803q0 -71 -42.5 -104t-114.5 -33h-80v90h53q27 0 43 18.5t16 51.5v122l-338 361v-473h-130v790l463 -495v475z" />
    <glyph glyph-name="eng" unicode="&#x14b;" horiz-adv-x="583" 
d="M339 514q76 0 128.5 -54.5t52.5 -133.5v-326h-8v-47q0 -34 -9.5 -60t-28.5 -41t-36 -24t-42.5 -12.5t-37 -4t-30.5 -0.5h-44v85h41q17 0 28 5.5t17 12t8.5 21.5t3 25t0.5 32v8h8v310q0 39 -26 64.5t-65 25.5q-40 0 -67 -26t-28 -64v-310h-129v504h129v-46q56 56 135 56z
" />
    <glyph glyph-name="Omacron" unicode="&#x14c;" horiz-adv-x="876" 
d="M279 835v104h318v-104h-318zM438 -10q-165 0 -280 116.5t-115 278.5q0 165 116.5 280t278.5 115q165 0 280 -116.5t115 -278.5q0 -165 -116.5 -280t-278.5 -115zM438 120q109 0 187 77.5t78 187.5q0 109 -77.5 187t-187.5 78q-109 0 -187 -77.5t-78 -187.5
q0 -109 77.5 -187t187.5 -78z" />
    <glyph glyph-name="omacron" unicode="&#x14d;" horiz-adv-x="598" 
d="M141 599v104h318v-104h-318zM300 -10q-113 0 -190 76t-77 186t77 186t190 76q112 0 189 -76t77 -186t-77 -186t-189 -76zM300 110q58 0 99 41.5t41 100.5t-41 100t-99 41q-60 0 -101.5 -41t-41.5 -100t41.5 -100.5t101.5 -41.5z" />
    <glyph glyph-name="Ohungarumlaut" unicode="&#x150;" horiz-adv-x="876" 
d="M354 843h-113l150 187l93 -80zM574 843h-113l150 187l93 -80zM438 -10q-165 0 -280 116.5t-115 278.5q0 165 116.5 280t278.5 115q165 0 280 -116.5t115 -278.5q0 -165 -116.5 -280t-278.5 -115zM438 120q109 0 187 77.5t78 187.5q0 109 -77.5 187t-187.5 78
q-109 0 -187 -77.5t-78 -187.5q0 -109 77.5 -187t187.5 -78z" />
    <glyph glyph-name="ohungarumlaut" unicode="&#x151;" horiz-adv-x="598" 
d="M216 577h-113l130 197l113 -80zM436 577h-113l130 197l113 -80zM300 -10q-113 0 -190 76t-77 186t77 186t190 76q112 0 189 -76t77 -186t-77 -186t-189 -76zM300 110q58 0 99 41.5t41 100.5t-41 100t-99 41q-60 0 -101.5 -41t-41.5 -100t41.5 -100.5t101.5 -41.5z" />
    <glyph glyph-name="OE" unicode="&#x152;" horiz-adv-x="1268" 
d="M1210 640h-350v-190h310v-130h-310v-190h350v-130h-480v119q-118 -129 -292 -129q-165 0 -280 116.5t-115 278.5q0 165 116.5 280t278.5 115q174 0 292 -129v119h480v-130zM438 120q109 0 187 77.5t78 187.5q0 109 -77.5 187t-187.5 78q-109 0 -187 -77.5t-78 -187.5
q0 -109 77.5 -187t187.5 -78z" />
    <glyph glyph-name="oe" unicode="&#x153;" horiz-adv-x="997" 
d="M965 257l-1 -28h-397q7 -61 46.5 -97.5t95.5 -36.5q87 0 129 73l104 -43q-31 -63 -92 -99t-140 -36q-129 0 -208 90q-79 -90 -202 -90q-113 0 -190 76t-77 186t77 186t190 76q123 0 202 -90q79 90 204 90q110 0 184 -71.5t75 -185.5zM707 411q-91 0 -127 -83h247
q-34 83 -120 83zM300 110q58 0 99 41.5t41 100.5t-41 100t-99 41q-60 0 -101.5 -41t-41.5 -100t41.5 -100.5t101.5 -41.5z" />
    <glyph glyph-name="Racute" unicode="&#x154;" horiz-adv-x="667" 
d="M512 954l-130 -107h-113l150 187zM647 0h-150l-158 285h-115v-285h-130v770h287q102 0 172 -68t70 -174q0 -81 -41.5 -141t-109.5 -86zM224 640v-225h147q55 0 88.5 29.5t33.5 83.5q0 53 -33.5 82.5t-88.5 29.5h-147z" />
    <glyph glyph-name="racute" unicode="&#x155;" horiz-adv-x="373" 
d="M134 581l130 197l113 -80l-130 -117h-113zM358 386q-66 13 -110 -24t-44 -139v-223h-129v504h129v-71q48 81 136 81q12 0 18 -1v-127z" />
    <glyph glyph-name="Rcommaaccent" unicode="&#x156;" horiz-adv-x="667" 
d="M472 301l175 -301h-150l-158 285h-115v-285h-130v770h287q102 0 172 -68t70 -174q0 -81 -41.5 -141t-109.5 -86zM224 640v-225h147q55 0 88.5 29.5t33.5 83.5q0 53 -33.5 82.5t-88.5 29.5h-147zM264 -297l30 227h133l-110 -227h-53z" />
    <glyph glyph-name="rcommaaccent" unicode="&#x157;" horiz-adv-x="373" 
d="M358 386q-66 13 -110 -24t-44 -139v-223h-129v504h129v-71q48 81 136 81q12 0 18 -1v-127zM43 -297l30 227h133l-110 -227h-53z" />
    <glyph glyph-name="Rcaron" unicode="&#x158;" horiz-adv-x="667" 
d="M398 849h-124l-110 167h104l68 -92l68 92h104zM647 0h-150l-158 285h-115v-285h-130v770h287q102 0 172 -68t70 -174q0 -81 -41.5 -141t-109.5 -86zM224 640v-225h147q55 0 88.5 29.5t33.5 83.5q0 53 -33.5 82.5t-88.5 29.5h-147z" />
    <glyph glyph-name="rcaron" unicode="&#x159;" horiz-adv-x="373" 
d="M139 573l-110 197h104l68 -122l68 122h104l-110 -197h-124zM358 386q-66 13 -110 -24t-44 -139v-223h-129v504h129v-71q48 81 136 81q12 0 18 -1v-127z" />
    <glyph glyph-name="Sacute" unicode="&#x15a;" horiz-adv-x="559" 
d="M211 847l150 187l93 -80l-130 -107h-113zM280 -10q-89 0 -157.5 49.5t-92.5 127.5l118 53q13 -50 47 -78t81 -28q51 0 82 29.5t31 79.5q0 47 -35 77t-103 62q-43 20 -66.5 34t-54 39.5t-45 60.5t-14.5 80q0 93 60 148.5t150 55.5q74 0 130.5 -39.5t78.5 -104.5l-112 -52
q-25 79 -94 79q-38 0 -61 -23t-23 -60q0 -10 2 -19.5t8 -18.5t10.5 -15.5t15.5 -14.5t17 -12.5t21 -12t21.5 -11t24.5 -12t24 -11.5q39 -19 64.5 -35t53.5 -43t42.5 -64.5t14.5 -84.5q0 -105 -68 -170.5t-171 -65.5z" />
    <glyph glyph-name="sacute" unicode="&#x15b;" horiz-adv-x="446" 
d="M151 581l130 197l113 -80l-130 -117h-113zM226 -10q-62 0 -113.5 21t-84.5 54l73 89q56 -58 121 -58q29 0 46.5 13.5t17.5 34.5q0 6 -1.5 11t-4.5 9t-6.5 7.5t-10 7t-11.5 6t-14.5 6t-15.5 5.5l-18 6t-19 7q-70 25 -107 58t-37 93q0 73 53.5 113.5t131.5 40.5
q108 0 173 -72l-76 -77q-49 49 -101 49q-24 0 -38.5 -12t-14.5 -31q0 -22 20 -34t67 -27q5 -1 8 -2q34 -11 56.5 -22t46.5 -29t36 -45.5t12 -63.5q0 -75 -52 -116.5t-137 -41.5z" />
    <glyph glyph-name="Scedilla" unicode="&#x15e;" horiz-adv-x="559" 
d="M519 226q0 -94 -56 -157.5t-144 -75.5l-32 -36q44 -6 70.5 -36t26.5 -74q0 -48 -31 -79.5t-83 -31.5q-63 0 -101 42l44 59q22 -34 56 -34q18 0 30.5 12t12.5 32q0 22 -13 33.5t-31 11.5q-25 0 -37 -16l-46 46l51 71q-75 12 -130.5 59t-75.5 115l118 53q13 -50 47 -78
t81 -28q51 0 82 29.5t31 79.5q0 47 -35 77t-103 62q-43 20 -66.5 34t-54 39.5t-45 60.5t-14.5 80q0 93 60 148.5t150 55.5q74 0 130.5 -39.5t78.5 -104.5l-112 -52q-25 79 -94 79q-38 0 -61 -23t-23 -60q0 -10 2 -19.5t8 -18.5t10.5 -15.5t15.5 -14.5t17 -12.5t21 -12
t21.5 -11t24.5 -12t24 -11.5q39 -19 64.5 -35t53.5 -43t42.5 -64.5t14.5 -84.5z" />
    <glyph glyph-name="scedilla" unicode="&#x15f;" horiz-adv-x="446" 
d="M415 148q0 -67 -42.5 -107.5t-114.5 -48.5l-31 -35q44 -6 70.5 -36t26.5 -74q0 -48 -31 -79.5t-83 -31.5q-63 0 -101 42l44 59q22 -34 56 -34q18 0 30.5 12t12.5 32q0 22 -13 33.5t-31 11.5q-25 0 -37 -16l-46 46l52 72q-92 14 -149 71l73 89q56 -58 121 -58
q29 0 46.5 13.5t17.5 34.5q0 6 -1.5 11t-4.5 9t-6.5 7.5t-10 7t-11.5 6t-14.5 6t-15.5 5.5l-18 6t-19 7q-70 25 -107 58t-37 93q0 73 53.5 113.5t131.5 40.5q108 0 173 -72l-76 -77q-49 49 -101 49q-24 0 -38.5 -12t-14.5 -31q0 -22 20 -34t67 -27q5 -1 8 -2
q34 -11 56.5 -22t46.5 -29t36 -45.5t12 -63.5z" />
    <glyph glyph-name="Scaron" unicode="&#x160;" horiz-adv-x="559" 
d="M216 849l-110 167h104l68 -92l68 92h104l-110 -167h-124zM280 -10q-89 0 -157.5 49.5t-92.5 127.5l118 53q13 -50 47 -78t81 -28q51 0 82 29.5t31 79.5q0 47 -35 77t-103 62q-43 20 -66.5 34t-54 39.5t-45 60.5t-14.5 80q0 93 60 148.5t150 55.5q74 0 130.5 -39.5
t78.5 -104.5l-112 -52q-25 79 -94 79q-38 0 -61 -23t-23 -60q0 -10 2 -19.5t8 -18.5t10.5 -15.5t15.5 -14.5t17 -12.5t21 -12t21.5 -11t24.5 -12t24 -11.5q39 -19 64.5 -35t53.5 -43t42.5 -64.5t14.5 -84.5q0 -105 -68 -170.5t-171 -65.5z" />
    <glyph glyph-name="scaron" unicode="&#x161;" horiz-adv-x="446" 
d="M156 573l-110 197h104l68 -122l68 122h104l-110 -197h-124zM226 -10q-62 0 -113.5 21t-84.5 54l73 89q56 -58 121 -58q29 0 46.5 13.5t17.5 34.5q0 6 -1.5 11t-4.5 9t-6.5 7.5t-10 7t-11.5 6t-14.5 6t-15.5 5.5l-18 6t-19 7q-70 25 -107 58t-37 93q0 73 53.5 113.5
t131.5 40.5q108 0 173 -72l-76 -77q-49 49 -101 49q-24 0 -38.5 -12t-14.5 -31q0 -22 20 -34t67 -27q5 -1 8 -2q34 -11 56.5 -22t46.5 -29t36 -45.5t12 -63.5q0 -75 -52 -116.5t-137 -41.5z" />
    <glyph glyph-name="uni0162" unicode="&#x162;" horiz-adv-x="575" 
d="M353 0h-18l-38 -43q44 -6 70.5 -36t26.5 -74q0 -48 -31 -79.5t-83 -31.5q-63 0 -101 42l44 59q22 -34 56 -34q18 0 30.5 12t12.5 32q0 22 -13 33.5t-31 11.5q-25 0 -37 -16l-46 46l56 78h-28v640h-198v130h525v-130h-197v-640z" />
    <glyph glyph-name="uni0163" unicode="&#x163;" horiz-adv-x="353" 
d="M242 0h-18l-38 -43q44 -6 70.5 -36t26.5 -74q0 -48 -31 -79.5t-83 -31.5q-63 0 -101 42l44 59q22 -34 56 -34q18 0 30.5 12t12.5 32q0 22 -13 33.5t-31 11.5q-25 0 -37 -16l-46 46l56 78h-28v399h-99v105h99v181h130v-181h98v-105h-98v-399z" />
    <glyph glyph-name="Tcaron" unicode="&#x164;" horiz-adv-x="575" 
d="M226 849l-110 167h104l68 -92l68 92h104l-110 -167h-124zM223 0v640h-198v130h525v-130h-197v-640h-130z" />
    <glyph glyph-name="tcaron" unicode="&#x165;" horiz-adv-x="353" 
d="M417 559h-83l30 297h153zM112 0v399h-99v105h99v181h130v-181h98v-105h-98v-399h-130z" />
    <glyph glyph-name="Tbar" unicode="&#x166;" horiz-adv-x="575" 
d="M550 640h-197v-208h139v-94h-139v-338h-130v338h-139v94h139v208h-198v130h525v-130z" />
    <glyph glyph-name="tbar" unicode="&#x167;" horiz-adv-x="353" 
d="M340 399h-98v-100h96v-94h-96v-205h-130v205h-96v94h96v100h-99v105h99v181h130v-181h98v-105z" />
    <glyph glyph-name="utilde" unicode="&#x169;" horiz-adv-x="561" 
d="M156 560l-94 39q33 132 136 132q34 0 60.5 -16.5t49 -32.5t45.5 -16q51 0 56 71l91 -37q-33 -134 -139 -134q-35 0 -63.5 15t-50 30.5t-39.5 15.5q-39 0 -52 -67zM280 -10q-102 0 -160 54t-58 145v315h130v-314q0 -42 24.5 -64.5t63.5 -22.5q40 0 64.5 22.5t24.5 64.5
v314h130v-315q0 -92 -58 -145.5t-161 -53.5z" />
    <glyph glyph-name="Umacron" unicode="&#x16a;" horiz-adv-x="710" 
d="M196 835v104h318v-104h-318zM79 770h130v-504q0 -62 42.5 -104t103.5 -42t103.5 42t42.5 104v504h130v-504q0 -115 -80.5 -195.5t-195.5 -80.5t-195.5 80.5t-80.5 195.5v504z" />
    <glyph glyph-name="umacron" unicode="&#x16b;" horiz-adv-x="561" 
d="M122 599v104h318v-104h-318zM280 -10q-102 0 -160 54t-58 145v315h130v-314q0 -42 24.5 -64.5t63.5 -22.5q40 0 64.5 22.5t24.5 64.5v314h130v-315q0 -92 -58 -145.5t-161 -53.5z" />
    <glyph glyph-name="Uring" unicode="&#x16e;" horiz-adv-x="710" 
d="M355 740q-65 0 -111.5 45.5t-46.5 112.5q0 65 45.5 111.5t112.5 46.5q65 0 111.5 -45.5t46.5 -112.5q0 -66 -46 -112t-112 -46zM355 823q31 0 53 21.5t22 53.5q0 31 -21.5 53t-53.5 22q-31 0 -53 -21.5t-22 -53.5q0 -31 21.5 -53t53.5 -22zM79 770h130v-504
q0 -62 42.5 -104t103.5 -42t103.5 42t42.5 104v504h130v-504q0 -115 -80.5 -195.5t-195.5 -80.5t-195.5 80.5t-80.5 195.5v504z" />
    <glyph glyph-name="uring" unicode="&#x16f;" horiz-adv-x="561" 
d="M281 554q-65 0 -111.5 45.5t-46.5 112.5q0 65 45.5 111.5t112.5 46.5q65 0 111.5 -45.5t46.5 -112.5q0 -66 -46 -112t-112 -46zM281 637q31 0 53 21.5t22 53.5q0 31 -21.5 53t-53.5 22q-31 0 -53 -21.5t-22 -53.5q0 -31 21.5 -53t53.5 -22zM280 -10q-102 0 -160 54
t-58 145v315h130v-314q0 -42 24.5 -64.5t63.5 -22.5q40 0 64.5 22.5t24.5 64.5v314h130v-315q0 -92 -58 -145.5t-161 -53.5z" />
    <glyph glyph-name="Uhungarumlaut" unicode="&#x170;" horiz-adv-x="710" 
d="M271 843h-113l150 187l93 -80zM491 843h-113l150 187l93 -80zM79 770h130v-504q0 -62 42.5 -104t103.5 -42t103.5 42t42.5 104v504h130v-504q0 -115 -80.5 -195.5t-195.5 -80.5t-195.5 80.5t-80.5 195.5v504z" />
    <glyph glyph-name="uhungarumlaut" unicode="&#x171;" horiz-adv-x="561" 
d="M197 577h-113l130 197l113 -80zM417 577h-113l130 197l113 -80zM280 -10q-102 0 -160 54t-58 145v315h130v-314q0 -42 24.5 -64.5t63.5 -22.5q40 0 64.5 22.5t24.5 64.5v314h130v-315q0 -92 -58 -145.5t-161 -53.5z" />
    <glyph glyph-name="Uogonek" unicode="&#x172;" horiz-adv-x="710" 
d="M501 770h130v-504q0 -86 -47.5 -155.5t-124.5 -100.5q-26 -11 -59 -16q-52 -27 -52 -76q0 -21 11 -32t28 -11q30 0 55 29l63 -71q-48 -57 -118 -57q-50 0 -85.5 32t-35.5 85q0 59 45 100q-100 16 -166 93t-66 180v504h130v-504q0 -62 42.5 -104t103.5 -42t103.5 42
t42.5 104v504z" />
    <glyph glyph-name="uogonek" unicode="&#x173;" horiz-adv-x="561" 
d="M369 504h130v-315q0 -84 -49.5 -136.5t-137.5 -61.5q-36 -11 -53.5 -34t-17.5 -49q0 -21 11 -32t28 -11q30 0 55 29l63 -71q-48 -57 -118 -57q-50 0 -85.5 32t-35.5 85q0 69 60 113q-75 15 -116 65.5t-41 127.5v315h130v-314q0 -42 24.5 -64.5t63.5 -22.5q40 0 64.5 22.5
t24.5 64.5v314z" />
    <glyph glyph-name="Wcircumflex" unicode="&#x174;" horiz-adv-x="1025" 
d="M514 941l-68 -82h-104l110 157h124l110 -157h-104zM1008 770l-350 -790l-145 328l-146 -328l-350 790h144l211 -501l77 183l-141 318h134l71 -167l70 167h134l-141 -318l77 -183l211 501h144z" />
    <glyph glyph-name="wcircumflex" unicode="&#x175;" horiz-adv-x="811" 
d="M234 573l110 197h124l110 -197h-104l-68 122l-68 -122h-104zM806 504l-240 -524l-160 354l-161 -354l-240 524h141l109 -263l101 263h99l101 -263l109 263h141z" />
    <glyph glyph-name="Ycircumflex" unicode="&#x176;" horiz-adv-x="632" 
d="M144 859l110 157h124l110 -157h-104l-68 82l-68 -82h-104zM251 0v367l-237 403h161l141 -277l142 277h160l-237 -403v-367h-130z" />
    <glyph glyph-name="ycircumflex" unicode="&#x177;" horiz-adv-x="553" 
d="M279 695l-68 -122h-104l110 197h124l110 -197h-104zM408 504h138l-294 -734h-134l93 236l-204 498h142l130 -346z" />
    <glyph glyph-name="Ydieresis" unicode="&#x178;" horiz-adv-x="632" 
d="M215 826q-29 0 -49 20t-20 49q0 28 20.5 48t48.5 20t48 -20t20 -48t-20 -48.5t-48 -20.5zM417 826q-29 0 -49 20t-20 49q0 28 20.5 48t48.5 20t48 -20t20 -48t-20 -48.5t-48 -20.5zM251 0v367l-237 403h161l141 -277l142 277h160l-237 -403v-367h-130z" />
    <glyph glyph-name="Zacute" unicode="&#x179;" horiz-adv-x="671" 
d="M266 847l150 187l93 -80l-130 -107h-113zM31 0l377 640h-359v130h586l-377 -640h377v-130h-604z" />
    <glyph glyph-name="zacute" unicode="&#x17a;" horiz-adv-x="506" 
d="M187 581l130 197l113 -80l-130 -117h-113zM22 0l253 399h-238v105h441l-254 -399h252v-105h-454z" />
    <glyph glyph-name="Zdotaccent" unicode="&#x17b;" horiz-adv-x="671" 
d="M333 822q-29 0 -49 20t-20 49q0 28 20.5 48t48.5 20t48 -20t20 -48t-20 -48.5t-48 -20.5zM31 0l377 640h-359v130h586l-377 -640h377v-130h-604z" />
    <glyph glyph-name="zdotaccent" unicode="&#x17c;" horiz-adv-x="506" 
d="M254 630q-31 0 -53.5 22t-22.5 53t22.5 53t53.5 22q32 0 54 -22t22 -53t-22 -53t-54 -22zM22 0l253 399h-238v105h441l-254 -399h252v-105h-454z" />
    <glyph glyph-name="Zcaron" unicode="&#x17d;" horiz-adv-x="671" 
d="M271 849l-110 167h104l68 -92l68 92h104l-110 -167h-124zM31 0l377 640h-359v130h586l-377 -640h377v-130h-604z" />
    <glyph glyph-name="zcaron" unicode="&#x17e;" horiz-adv-x="506" 
d="M192 573l-110 197h104l68 -122l68 122h104l-110 -197h-124zM22 0l253 399h-238v105h441l-254 -399h252v-105h-454z" />
    <glyph glyph-name="uni01CD" unicode="&#x1cd;" horiz-adv-x="734" 
d="M429 849h-124l-110 167h104l68 -92l68 92h104zM570 0l-57 140h-292l-57 -140h-147l350 790l350 -790h-147zM271 262h192l-96 234z" />
    <glyph glyph-name="uni01CE" unicode="&#x1ce;" horiz-adv-x="652" 
d="M271 573l-110 197h104l68 -122l68 122h104l-110 -197h-124zM283 -10q-103 0 -176 76.5t-73 186.5q0 109 73.5 186t175.5 77q105 0 164 -69v57h130v-504h-121l-3 65q-61 -75 -170 -75zM308 108q60 0 101.5 42.5t41.5 102.5t-41.5 102t-101.5 42q-61 0 -102.5 -42
t-41.5 -102t42 -102.5t102 -42.5z" />
    <glyph glyph-name="uni01CF" unicode="&#x1cf;" horiz-adv-x="318" 
d="M97 849l-110 167h104l68 -92l68 92h104l-110 -167h-124zM94 0v770h130v-770h-130z" />
    <glyph glyph-name="uni01D0" unicode="&#x1d0;" horiz-adv-x="278" 
d="M78 573l-110 197h104l68 -122l68 122h104l-110 -197h-124zM75 0v504h128v-504h-128z" />
    <glyph glyph-name="uni01D1" unicode="&#x1d1;" horiz-adv-x="876" 
d="M376 849l-110 167h104l68 -92l68 92h104l-110 -167h-124zM438 -10q-165 0 -280 116.5t-115 278.5q0 165 116.5 280t278.5 115q165 0 280 -116.5t115 -278.5q0 -165 -116.5 -280t-278.5 -115zM438 120q109 0 187 77.5t78 187.5q0 109 -77.5 187t-187.5 78
q-109 0 -187 -77.5t-78 -187.5q0 -109 77.5 -187t187.5 -78z" />
    <glyph glyph-name="uni01D2" unicode="&#x1d2;" horiz-adv-x="598" 
d="M238 573l-110 197h104l68 -122l68 122h104l-110 -197h-124zM300 -10q-113 0 -190 76t-77 186t77 186t190 76q112 0 189 -76t77 -186t-77 -186t-189 -76zM300 110q58 0 99 41.5t41 100.5t-41 100t-99 41q-60 0 -101.5 -41t-41.5 -100t41.5 -100.5t101.5 -41.5z" />
    <glyph glyph-name="uni01D3" unicode="&#x1d3;" horiz-adv-x="710" 
d="M293 849l-110 167h104l68 -92l68 92h104l-110 -167h-124zM79 770h130v-504q0 -62 42.5 -104t103.5 -42t103.5 42t42.5 104v504h130v-504q0 -115 -80.5 -195.5t-195.5 -80.5t-195.5 80.5t-80.5 195.5v504z" />
    <glyph glyph-name="uni01D4" unicode="&#x1d4;" horiz-adv-x="561" 
d="M219 573l-110 197h104l68 -122l68 122h104l-110 -197h-124zM280 -10q-102 0 -160 54t-58 145v315h130v-314q0 -42 24.5 -64.5t63.5 -22.5q40 0 64.5 22.5t24.5 64.5v314h130v-315q0 -92 -58 -145.5t-161 -53.5z" />
    <glyph glyph-name="uni01D5" unicode="&#x1d5;" horiz-adv-x="710" 
d="M196 1018v104h318v-104h-318zM254 826q-28 0 -48.5 20t-20.5 49q0 28 20.5 48t48.5 20t48 -20t20 -48t-20 -48.5t-48 -20.5zM456 826q-28 0 -48.5 20t-20.5 49q0 28 20.5 48t48.5 20t48 -20t20 -48t-20 -48.5t-48 -20.5zM79 770h130v-504q0 -62 42.5 -104t103.5 -42
t103.5 42t42.5 104v504h130v-504q0 -115 -80.5 -195.5t-195.5 -80.5t-195.5 80.5t-80.5 195.5v504z" />
    <glyph glyph-name="uni01D6" unicode="&#x1d6;" horiz-adv-x="561" 
d="M122 842v104h318v-104h-318zM180 610q-28 0 -48.5 20t-20.5 49q0 28 20.5 48t48.5 20t48 -20t20 -48t-20 -48.5t-48 -20.5zM382 610q-28 0 -48.5 20t-20.5 49q0 28 20.5 48t48.5 20t48 -20t20 -48t-20 -48.5t-48 -20.5zM280 -10q-102 0 -160 54t-58 145v315h130v-314
q0 -42 24.5 -64.5t63.5 -22.5q40 0 64.5 22.5t24.5 64.5v314h130v-315q0 -92 -58 -145.5t-161 -53.5z" />
    <glyph glyph-name="uni01D7" unicode="&#x1d7;" horiz-adv-x="710" 
d="M288 1030l150 187l93 -80l-130 -107h-113zM254 826q-28 0 -48.5 20t-20.5 49q0 28 20.5 48t48.5 20t48 -20t20 -48t-20 -48.5t-48 -20.5zM456 826q-28 0 -48.5 20t-20.5 49q0 28 20.5 48t48.5 20t48 -20t20 -48t-20 -48.5t-48 -20.5zM79 770h130v-504q0 -62 42.5 -104
t103.5 -42t103.5 42t42.5 104v504h130v-504q0 -115 -80.5 -195.5t-195.5 -80.5t-195.5 80.5t-80.5 195.5v504z" />
    <glyph glyph-name="uni01D8" unicode="&#x1d8;" horiz-adv-x="561" 
d="M214 824l130 197l113 -80l-130 -117h-113zM180 610q-28 0 -48.5 20t-20.5 49q0 28 20.5 48t48.5 20t48 -20t20 -48t-20 -48.5t-48 -20.5zM382 610q-28 0 -48.5 20t-20.5 49q0 28 20.5 48t48.5 20t48 -20t20 -48t-20 -48.5t-48 -20.5zM280 -10q-102 0 -160 54t-58 145v315
h130v-314q0 -42 24.5 -64.5t63.5 -22.5q40 0 64.5 22.5t24.5 64.5v314h130v-315q0 -92 -58 -145.5t-161 -53.5z" />
    <glyph glyph-name="uni01D9" unicode="&#x1d9;" horiz-adv-x="710" 
d="M293 1032l-110 167h104l68 -92l68 92h104l-110 -167h-124zM254 826q-28 0 -48.5 20t-20.5 49q0 28 20.5 48t48.5 20t48 -20t20 -48t-20 -48.5t-48 -20.5zM456 826q-28 0 -48.5 20t-20.5 49q0 28 20.5 48t48.5 20t48 -20t20 -48t-20 -48.5t-48 -20.5zM79 770h130v-504
q0 -62 42.5 -104t103.5 -42t103.5 42t42.5 104v504h130v-504q0 -115 -80.5 -195.5t-195.5 -80.5t-195.5 80.5t-80.5 195.5v504z" />
    <glyph glyph-name="uni01DA" unicode="&#x1da;" horiz-adv-x="561" 
d="M219 816l-110 197h104l68 -122l68 122h104l-110 -197h-124zM180 610q-28 0 -48.5 20t-20.5 49q0 28 20.5 48t48.5 20t48 -20t20 -48t-20 -48.5t-48 -20.5zM382 610q-28 0 -48.5 20t-20.5 49q0 28 20.5 48t48.5 20t48 -20t20 -48t-20 -48.5t-48 -20.5zM280 -10
q-102 0 -160 54t-58 145v315h130v-314q0 -42 24.5 -64.5t63.5 -22.5q40 0 64.5 22.5t24.5 64.5v314h130v-315q0 -92 -58 -145.5t-161 -53.5z" />
    <glyph glyph-name="uni01DB" unicode="&#x1db;" horiz-adv-x="710" 
d="M298 1026l-110 87l93 80l130 -167h-113zM254 826q-28 0 -48.5 20t-20.5 49q0 28 20.5 48t48.5 20t48 -20t20 -48t-20 -48.5t-48 -20.5zM456 826q-28 0 -48.5 20t-20.5 49q0 28 20.5 48t48.5 20t48 -20t20 -48t-20 -48.5t-48 -20.5zM79 770h130v-504q0 -62 42.5 -104
t103.5 -42t103.5 42t42.5 104v504h130v-504q0 -115 -80.5 -195.5t-195.5 -80.5t-195.5 80.5t-80.5 195.5v504z" />
    <glyph glyph-name="uni01DC" unicode="&#x1dc;" horiz-adv-x="561" 
d="M224 820l-130 117l113 80l130 -197h-113zM180 610q-28 0 -48.5 20t-20.5 49q0 28 20.5 48t48.5 20t48 -20t20 -48t-20 -48.5t-48 -20.5zM382 610q-28 0 -48.5 20t-20.5 49q0 28 20.5 48t48.5 20t48 -20t20 -48t-20 -48.5t-48 -20.5zM280 -10q-102 0 -160 54t-58 145v315
h130v-314q0 -42 24.5 -64.5t63.5 -22.5q40 0 64.5 22.5t24.5 64.5v314h130v-315q0 -92 -58 -145.5t-161 -53.5z" />
    <glyph glyph-name="Oslashacute" unicode="&#x1fe;" horiz-adv-x="876" 
d="M614 954l-130 -107h-113l150 187zM754 623q79 -106 79 -238q0 -165 -116.5 -280t-278.5 -115q-132 0 -238 79l-58 -58l-78 78l58 58q-79 106 -79 238q0 165 116.5 280t278.5 115q132 0 238 -79l58 58l78 -78zM173 385q0 -79 43 -144l366 366q-65 43 -144 43
q-109 0 -187 -77.5t-78 -187.5zM438 120q109 0 187 77.5t78 187.5q0 79 -43 144l-366 -366q65 -43 144 -43z" />
    <glyph glyph-name="oslashacute" unicode="&#x1ff;" horiz-adv-x="598" 
d="M476 698l-130 -117h-113l130 197zM574 469l-60 -60q52 -68 52 -157q0 -110 -77 -186t-189 -76q-87 0 -157 48l-61 -61l-57 57l60 60q-52 69 -52 158q0 110 77 186t190 76q86 0 156 -48l61 61zM157 252q0 -37 17 -68l193 192q-31 17 -67 17q-60 0 -101.5 -41t-41.5 -100z
M440 252q0 35 -16 67l-192 -192q31 -17 68 -17q58 0 99 41.5t41 100.5z" />
    <glyph glyph-name="Scommaaccent" unicode="&#x218;" horiz-adv-x="559" 
d="M280 -10q-89 0 -157.5 49.5t-92.5 127.5l118 53q13 -50 47 -78t81 -28q51 0 82 29.5t31 79.5q0 47 -35 77t-103 62q-43 20 -66.5 34t-54 39.5t-45 60.5t-14.5 80q0 93 60 148.5t150 55.5q74 0 130.5 -39.5t78.5 -104.5l-112 -52q-25 79 -94 79q-38 0 -61 -23t-23 -60
q0 -10 2 -19.5t8 -18.5t10.5 -15.5t15.5 -14.5t17 -12.5t21 -12t21.5 -11t24.5 -12t24 -11.5q39 -19 64.5 -35t53.5 -43t42.5 -64.5t14.5 -84.5q0 -105 -68 -170.5t-171 -65.5zM181 -297l30 227h133l-110 -227h-53z" />
    <glyph glyph-name="scommaaccent" unicode="&#x219;" horiz-adv-x="446" 
d="M226 -10q-62 0 -113.5 21t-84.5 54l73 89q56 -58 121 -58q29 0 46.5 13.5t17.5 34.5q0 6 -1.5 11t-4.5 9t-6.5 7.5t-10 7t-11.5 6t-14.5 6t-15.5 5.5l-18 6t-19 7q-70 25 -107 58t-37 93q0 73 53.5 113.5t131.5 40.5q108 0 173 -72l-76 -77q-49 49 -101 49
q-24 0 -38.5 -12t-14.5 -31q0 -22 20 -34t67 -27q5 -1 8 -2q34 -11 56.5 -22t46.5 -29t36 -45.5t12 -63.5q0 -75 -52 -116.5t-137 -41.5zM121 -297l30 227h133l-110 -227h-53z" />
    <glyph glyph-name="uni021A" unicode="&#x21a;" horiz-adv-x="575" 
d="M223 0v640h-198v130h525v-130h-197v-640h-130zM191 -297l30 227h133l-110 -227h-53z" />
    <glyph glyph-name="uni021B" unicode="&#x21b;" horiz-adv-x="353" 
d="M112 0v399h-99v105h99v181h130v-181h98v-105h-98v-399h-130zM80 -297l30 227h133l-110 -227h-53z" />
    <glyph glyph-name="circumflex" unicode="&#x2c6;" horiz-adv-x="392" 
d="M17 573l110 197h124l110 -197h-104l-68 122l-68 -122h-104z" />
    <glyph glyph-name="caron" unicode="&#x2c7;" horiz-adv-x="392" 
d="M127 573l-110 197h104l68 -122l68 122h104l-110 -197h-124z" />
    <glyph glyph-name="breve" unicode="&#x2d8;" horiz-adv-x="441" 
d="M220 568q-79 0 -131.5 50.5t-52.5 126.5v25h99v-25q0 -32 22.5 -55t54.5 -23t55 23t23 55v25h99v-25q0 -73 -50 -125t-119 -52z" />
    <glyph glyph-name="dotaccent" unicode="&#x2d9;" horiz-adv-x="262" 
d="M131 630q-31 0 -53.5 22t-22.5 53t22.5 53t53.5 22q32 0 54 -22t22 -53t-22 -53t-54 -22z" />
    <glyph glyph-name="ring" unicode="&#x2da;" horiz-adv-x="397" 
d="M198 550q-65 0 -111.5 45.5t-46.5 112.5q0 65 45.5 111.5t112.5 46.5q65 0 111.5 -45.5t46.5 -112.5q0 -66 -46 -112t-112 -46zM198 633q31 0 53 21.5t22 53.5q0 31 -21.5 53t-53.5 22q-31 0 -53 -21.5t-22 -53.5q0 -31 21.5 -53t53.5 -22z" />
    <glyph glyph-name="ogonek" unicode="&#x2db;" horiz-adv-x="306" 
d="M44 -117q0 50 34 89.5t101 56.5l58 -29q-56 -6 -83.5 -32.5t-27.5 -59.5q0 -21 11 -32t28 -11q30 0 55 29l63 -71q-48 -57 -118 -57q-50 0 -85.5 32t-35.5 85z" />
    <glyph glyph-name="tilde" unicode="&#x2dc;" horiz-adv-x="518" 
d="M134 560l-94 39q33 132 136 132q34 0 60.5 -16.5t49 -32.5t45.5 -16q51 0 56 71l91 -37q-33 -134 -139 -134q-35 0 -63.5 15t-50 30.5t-39.5 15.5q-39 0 -52 -67z" />
    <glyph glyph-name="hungarumlaut" unicode="&#x2dd;" horiz-adv-x="505" 
d="M124 577h-113l130 197l113 -80zM344 577h-113l130 197l113 -80z" />
    <glyph glyph-name="gravecomb" unicode="&#x300;" 
d="M-132 577l-130 117l113 80l130 -197h-113z" />
    <glyph glyph-name="acutecomb" unicode="&#x301;" 
d="M-266 577l130 197l113 -80l-130 -117h-113z" />
    <glyph glyph-name="uni0302" unicode="&#x302;" 
d="M-368 573l110 197h124l110 -197h-104l-68 122l-68 -122h-104z" />
    <glyph glyph-name="tildecomb" unicode="&#x303;" 
d="M-384 560l-94 39q33 132 136 132q34 0 60.5 -16.5t49 -32.5t45.5 -16q51 0 56 71l91 -37q-33 -134 -139 -134q-35 0 -63.5 15t-50 30.5t-39.5 15.5q-39 0 -52 -67z" />
    <glyph glyph-name="uni0304" unicode="&#x304;" 
d="M-392 595v104h318v-104h-318z" />
    <glyph glyph-name="uni0306" unicode="&#x306;" 
d="M-213 568q-79 0 -131.5 50.5t-52.5 126.5v25h99v-25q0 -32 22.5 -55t54.5 -23t55 23t23 55v25h99v-25q0 -73 -50 -125t-119 -52z" />
    <glyph glyph-name="uni0307" unicode="&#x307;" 
d="M-131 630q-31 0 -53.5 22t-22.5 53t22.5 53t53.5 22q32 0 54 -22t22 -53t-22 -53t-54 -22z" />
    <glyph glyph-name="uni0308" unicode="&#x308;" 
d="M-327 606q-29 0 -49 20t-20 49q0 28 20.5 48t48.5 20t48 -20t20 -48t-20 -48.5t-48 -20.5zM-125 606q-29 0 -49 20t-20 49q0 28 20.5 48t48.5 20t48 -20t20 -48t-20 -48.5t-48 -20.5z" />
    <glyph glyph-name="uni030A" unicode="&#x30a;" 
d="M-199 550q-65 0 -111.5 45.5t-46.5 112.5q0 65 45.5 111.5t112.5 46.5q65 0 111.5 -45.5t46.5 -112.5q0 -66 -46 -112t-112 -46zM-199 633q31 0 53 21.5t22 53.5q0 31 -21.5 53t-53.5 22q-31 0 -53 -21.5t-22 -53.5q0 -31 21.5 -53t53.5 -22z" />
    <glyph glyph-name="uni030B" unicode="&#x30b;" 
d="M-373 577h-113l130 197l113 -80zM-153 577h-113l130 197l113 -80z" />
    <glyph glyph-name="uni030C" unicode="&#x30c;" 
d="M-258 573l-110 197h104l68 -122l68 122h104l-110 -197h-124z" />
    <glyph glyph-name="uni0312" unicode="&#x312;" 
d="M-228 585l80 247h73v-247h-153z" />
    <glyph glyph-name="uni0326" unicode="&#x326;" 
d="M-187 -297l30 227h133l-110 -227h-53z" />
    <glyph glyph-name="uni0327" unicode="&#x327;" 
d="M-140 -43q44 -6 70.5 -36t26.5 -74q0 -48 -31 -79.5t-83 -31.5q-63 0 -101 42l44 59q22 -34 56 -34q18 0 30.5 12t12.5 32q0 22 -13 33.5t-31 11.5q-25 0 -37 -16l-46 46l62 86h85z" />
    <glyph glyph-name="uni0328" unicode="&#x328;" 
d="M-262 -117q0 50 34 89.5t101 56.5l58 -29q-56 -6 -83.5 -32.5t-27.5 -59.5q0 -21 11 -32t28 -11q30 0 55 29l63 -71q-48 -57 -118 -57q-50 0 -85.5 32t-35.5 85z" />
    <glyph glyph-name="uni0335" unicode="&#x335;" 
d="M-482 338v94h408v-94h-408z" />
    <glyph glyph-name="uni0336" unicode="&#x336;" 
d="M-712 333v104h638v-104h-638z" />
    <glyph glyph-name="uni1E3E" unicode="&#x1e3e;" horiz-adv-x="920" 
d="M393 847l150 187l93 -80l-130 -107h-113zM94 0v790l366 -506l366 506v-790h-129v395l-237 -327l-236 327v-395h-130z" />
    <glyph glyph-name="uni1E3F" unicode="&#x1e3f;" horiz-adv-x="870" 
d="M366 581l130 197l113 -80l-130 -117h-113zM75 0v504h130v-50q49 60 122 60q88 0 144 -79q53 79 150 79q80 0 133 -56t53 -139v-319h-130v309q0 38 -24 63.5t-60 25.5q-39 0 -63 -27.5t-24 -67.5v-303h-130v309q0 38 -24 63.5t-62 25.5t-61.5 -27.5t-23.5 -67.5v-303h-130
z" />
    <glyph glyph-name="uni1E44" unicode="&#x1e44;" horiz-adv-x="781" 
d="M391 822q-29 0 -49 20t-20 49q0 28 20.5 48t48.5 20t48 -20t20 -48t-20 -48.5t-48 -20.5zM687 -22l-463 495v-473h-130v790l463 -495v475h130v-792z" />
    <glyph glyph-name="uni1E45" unicode="&#x1e45;" horiz-adv-x="583" 
d="M289 630q-31 0 -53.5 22t-22.5 53t22.5 53t53.5 22q32 0 54 -22t22 -53t-22 -53t-54 -22zM75 0v504h129v-46q56 56 135 56q76 0 128.5 -54.5t52.5 -133.5v-326h-130v310q0 39 -26 64.5t-65 25.5q-40 0 -67 -26t-28 -64v-310h-129z" />
    <glyph glyph-name="uni1E4C" unicode="&#x1e4c;" horiz-adv-x="876" 
d="M371 1070l150 187l93 -80l-130 -107h-113zM313 816l-94 39q33 132 136 132q34 0 60.5 -16.5t49 -32.5t45.5 -16q51 0 56 71l91 -37q-33 -134 -139 -134q-35 0 -63.5 15t-50 30.5t-39.5 15.5q-39 0 -52 -67zM438 -10q-165 0 -280 116.5t-115 278.5q0 165 116.5 280
t278.5 115q165 0 280 -116.5t115 -278.5q0 -165 -116.5 -280t-278.5 -115zM438 120q109 0 187 77.5t78 187.5q0 109 -77.5 187t-187.5 78q-109 0 -187 -77.5t-78 -187.5q0 -109 77.5 -187t187.5 -78z" />
    <glyph glyph-name="uni1E4D" unicode="&#x1e4d;" horiz-adv-x="598" 
d="M233 814l130 197l113 -80l-130 -117h-113zM175 560l-94 39q33 132 136 132q34 0 60.5 -16.5t49 -32.5t45.5 -16q51 0 56 71l91 -37q-33 -134 -139 -134q-35 0 -63.5 15t-50 30.5t-39.5 15.5q-39 0 -52 -67zM300 -10q-113 0 -190 76t-77 186t77 186t190 76q112 0 189 -76
t77 -186t-77 -186t-189 -76zM300 110q58 0 99 41.5t41 100.5t-41 100t-99 41q-60 0 -101.5 -41t-41.5 -100t41.5 -100.5t101.5 -41.5z" />
    <glyph glyph-name="Wgrave" unicode="&#x1e80;" horiz-adv-x="1025" 
d="M570 843h-113l-110 87l93 80zM1008 770l-350 -790l-145 328l-146 -328l-350 790h144l211 -501l77 183l-141 318h134l71 -167l70 167h134l-141 -318l77 -183l211 501h144z" />
    <glyph glyph-name="wgrave" unicode="&#x1e81;" horiz-adv-x="811" 
d="M349 577l-130 117l113 80l130 -197h-113zM806 504l-240 -524l-160 354l-161 -354l-240 524h141l109 -263l101 263h99l101 -263l109 263h141z" />
    <glyph glyph-name="Wacute" unicode="&#x1e82;" horiz-adv-x="1025" 
d="M690 954l-130 -107h-113l150 187zM1008 770l-350 -790l-145 328l-146 -328l-350 790h144l211 -501l77 183l-141 318h134l71 -167l70 167h134l-141 -318l77 -183l211 501h144z" />
    <glyph glyph-name="wacute" unicode="&#x1e83;" horiz-adv-x="811" 
d="M339 581l130 197l113 -80l-130 -117h-113zM806 504l-240 -524l-160 354l-161 -354l-240 524h141l109 -263l101 263h99l101 -263l109 263h141z" />
    <glyph glyph-name="Wdieresis" unicode="&#x1e84;" horiz-adv-x="1025" 
d="M413 826q-29 0 -49 20t-20 49q0 28 20.5 48t48.5 20t48 -20t20 -48t-20 -48.5t-48 -20.5zM615 826q-29 0 -49 20t-20 49q0 28 20.5 48t48.5 20t48 -20t20 -48t-20 -48.5t-48 -20.5zM1008 770l-350 -790l-145 328l-146 -328l-350 790h144l211 -501l77 183l-141 318h134
l71 -167l70 167h134l-141 -318l77 -183l211 501h144z" />
    <glyph glyph-name="wdieresis" unicode="&#x1e85;" horiz-adv-x="811" 
d="M305 610q-29 0 -49 20t-20 49q0 28 20.5 48t48.5 20t48 -20t20 -48t-20 -48.5t-48 -20.5zM507 610q-29 0 -49 20t-20 49q0 28 20.5 48t48.5 20t48 -20t20 -48t-20 -48.5t-48 -20.5zM806 504l-240 -524l-160 354l-161 -354l-240 524h141l109 -263l101 263h99l101 -263
l109 263h141z" />
    <glyph glyph-name="uni1EBC" unicode="&#x1ebc;" horiz-adv-x="632" 
d="M209 816l-94 39q33 132 136 132q34 0 60.5 -16.5t49 -32.5t45.5 -16q51 0 56 71l91 -37q-33 -134 -139 -134q-35 0 -63.5 15t-50 30.5t-39.5 15.5q-39 0 -52 -67zM94 0v770h480v-130h-350v-190h310v-130h-310v-190h350v-130h-480z" />
    <glyph glyph-name="uni1EBD" unicode="&#x1ebd;" horiz-adv-x="590" 
d="M216 627q-39 0 -52 -67l-94 39q33 132 136 132q34 0 60.5 -16.5t49 -32.5t45.5 -16q51 0 56 71l91 -37q-33 -134 -139 -134q-35 0 -63.5 15t-50 30.5t-39.5 15.5zM558 257l-1 -28h-397q7 -61 46.5 -97.5t95.5 -36.5q87 0 129 73l104 -43q-31 -63 -92 -99t-140 -36
q-118 0 -194 75.5t-76 186.5q0 110 75.5 186t190.5 76q110 0 184 -71.5t75 -185.5zM300 411q-91 0 -127 -83h247q-34 83 -120 83z" />
    <glyph glyph-name="Ygrave" unicode="&#x1ef2;" horiz-adv-x="632" 
d="M259 843l-110 87l93 80l130 -167h-113zM251 0v367l-237 403h161l141 -277l142 277h160l-237 -403v-367h-130z" />
    <glyph glyph-name="ygrave" unicode="&#x1ef3;" horiz-adv-x="553" 
d="M335 577h-113l-130 117l113 80zM408 504h138l-294 -734h-134l93 236l-204 498h142l130 -346z" />
    <glyph glyph-name="endash" unicode="&#x2013;" horiz-adv-x="686" 
d="M74 190v130h538v-130h-538z" />
    <glyph glyph-name="emdash" unicode="&#x2014;" horiz-adv-x="1148" 
d="M74 190v130h1000v-130h-1000z" />
    <glyph glyph-name="quoteleft" unicode="&#x2018;" horiz-adv-x="300" 
d="M142 473l-100 297h153l30 -297h-83z" />
    <glyph glyph-name="quoteright" unicode="&#x2019;" horiz-adv-x="300" 
d="M158 473h-83l30 297h153z" />
    <glyph glyph-name="quotesinglbase" unicode="&#x201a;" horiz-adv-x="297" 
d="M75 -196l30 297h153l-110 -297h-73z" />
    <glyph glyph-name="quotedblleft" unicode="&#x201c;" horiz-adv-x="520" 
d="M142 473l-100 297h153l30 -297h-83zM362 473l-100 297h153l30 -297h-83z" />
    <glyph glyph-name="quotedblright" unicode="&#x201d;" horiz-adv-x="520" 
d="M75 473l30 297h153l-100 -297h-83zM295 473l30 297h153l-100 -297h-83z" />
    <glyph glyph-name="quotedblbase" unicode="&#x201e;" horiz-adv-x="517" 
d="M75 -196l30 297h153l-110 -297h-73zM295 -196l30 297h153l-110 -297h-73z" />
    <glyph glyph-name="bullet" unicode="&#x2022;" horiz-adv-x="410" 
d="M203 255q-55 0 -91 36t-36 92t38.5 93t90.5 37q53 0 91 -37.5t38 -92.5q0 -54 -38 -91t-93 -37z" />
    <glyph glyph-name="ellipsis" unicode="&#x2026;" horiz-adv-x="1022" 
d="M177 -10q-40 0 -68 27.5t-28 68.5q0 39 28 68t68 29q42 0 69.5 -29t27.5 -68q0 -41 -27.5 -68.5t-69.5 -27.5zM510 -10q-40 0 -68 27.5t-28 68.5q0 39 28 68t68 29q42 0 69.5 -29t27.5 -68q0 -41 -27.5 -68.5t-69.5 -27.5zM843 -10q-40 0 -68 27.5t-28 68.5q0 39 28 68
t68 29q42 0 69.5 -29t27.5 -68q0 -41 -27.5 -68.5t-69.5 -27.5z" />
    <glyph glyph-name="perthousand" unicode="&#x2030;" horiz-adv-x="1150" 
d="M206 460q-64 0 -109.5 47t-45.5 113t45 113t110 47q64 0 109.5 -47t45.5 -113t-45 -113t-110 -47zM86 -1l483 771h144l-483 -771h-144zM206 561q27 0 43 17.5t16 41.5q0 25 -16.5 42t-42.5 17t-42.5 -17.5t-16.5 -41.5q0 -25 17 -42t42 -17zM595 -10q-66 0 -111 47
t-45 113t45 113t111 47t110.5 -47.5t44.5 -112.5t-45 -112.5t-110 -47.5zM944 -10q-66 0 -111 47t-45 113t45 113t111 47t110.5 -47.5t44.5 -112.5t-45 -112.5t-110 -47.5zM595 91q25 0 42 17t17 42t-17 42t-42 17q-27 0 -43.5 -17.5t-16.5 -41.5q0 -25 17 -42t43 -17z
M944 91q25 0 42 17t17 42t-17 42t-42 17q-27 0 -43.5 -17.5t-16.5 -41.5q0 -25 17 -42t43 -17z" />
    <glyph glyph-name="fraction" unicode="&#x2044;" horiz-adv-x="219" 
d="M-170 -200l415 1000h144l-415 -1000h-144z" />
    <glyph glyph-name="trademark" unicode="&#x2122;" horiz-adv-x="698" 
d="M306 457v333l139 -192l140 192v-333h-69v139l-71 -93l-70 92v-138h-69zM138 457v244h-69v69h207v-69h-69v-244h-69z" />
    <glyph glyph-name="minus" unicode="&#x2212;" horiz-adv-x="677" 
d="M112 246v114h453v-114h-453z" />
    <glyph glyph-name="uniF8FF" unicode="&#xf8ff;" horiz-adv-x="846" 
d="M423 0q-157 0 -268.5 111.5t-111.5 268.5t111.5 268.5t268.5 111.5t268.5 -111t111.5 -269q0 -157 -111.5 -268.5t-268.5 -111.5zM423 36q142 0 243 101t101 243t-100.5 243t-243.5 101q-142 0 -243 -101t-101 -243t101 -243t243 -101zM622 217q-8 0 -12 6l-145 144
q-12 14 0 26l145 145q12 12 25 0q13 -13 0 -26l-132 -132l132 -132q13 -12 0 -25q-5 -6 -13 -6zM224 217q-8 0 -13 5.5t-5 12.5v290q0 7 5 12.5t13 5.5t13 -5.5t5 -12.5v-290q0 -7 -5 -12.5t-13 -5.5zM423 217q-7 0 -12.5 5.5t-5.5 12.5v290q0 7 5.5 12.5t12.5 5.5
t12.5 -5.5t5.5 -12.5v-290q0 -7 -5.5 -12.5t-12.5 -5.5zM278 362q-8 0 -13 5t-5 13t5 13t13 5h91q7 0 12.5 -5t5.5 -13t-5.5 -13t-12.5 -5h-91z" />
    <glyph glyph-name="i.loclTRK" horiz-adv-x="278" 
d="M140 630q-31 0 -53.5 22t-22.5 53t22.5 53t53.5 22q32 0 54 -22t22 -53t-22 -53t-54 -22zM75 0v504h128v-504h-128z" />
    <glyph glyph-name="a.ss01" horiz-adv-x="551" 
d="M258 504q114 0 172 -43.5t58 -142.5v-318h-118l-4 60h-5q-18 -30 -56.5 -50t-88.5 -20q-72 0 -126.5 40.5t-54.5 121.5q0 32 11 66t41 98h274v8q0 41 -26 57.5t-77 16.5h-171v106h171zM251 90q71 0 110 74v65h-171q-22 -48 -22 -73q0 -34 24 -50t59 -16z" />
    <glyph glyph-name="aacute.ss01" horiz-adv-x="551" 
d="M445 698l-130 -117h-113l130 197zM258 504q114 0 172 -43.5t58 -142.5v-318h-118l-4 60h-5q-18 -30 -56.5 -50t-88.5 -20q-72 0 -126.5 40.5t-54.5 121.5q0 32 11 66t41 98h274v8q0 41 -26 57.5t-77 16.5h-171v106h171zM251 90q71 0 110 74v65h-171q-22 -48 -22 -73
q0 -34 24 -50t59 -16z" />
    <glyph glyph-name="abreve.ss01" horiz-adv-x="551" 
d="M276 572q-79 0 -131.5 50.5t-52.5 126.5v25h99v-25q0 -32 22.5 -55t54.5 -23t55 23t23 55v25h99v-25q0 -73 -50 -125t-119 -52zM258 504q114 0 172 -43.5t58 -142.5v-318h-118l-4 60h-5q-18 -30 -56.5 -50t-88.5 -20q-72 0 -126.5 40.5t-54.5 121.5q0 32 11 66t41 98h274
v8q0 41 -26 57.5t-77 16.5h-171v106h171zM251 90q71 0 110 74v65h-171q-22 -48 -22 -73q0 -34 24 -50t59 -16z" />
    <glyph glyph-name="uni01CE.ss01" horiz-adv-x="551" 
d="M331 573h-124l-110 197h104l68 -122l68 122h104zM258 504q114 0 172 -43.5t58 -142.5v-318h-118l-4 60h-5q-18 -30 -56.5 -50t-88.5 -20q-72 0 -126.5 40.5t-54.5 121.5q0 32 11 66t41 98h274v8q0 41 -26 57.5t-77 16.5h-171v106h171zM251 90q71 0 110 74v65h-171
q-22 -48 -22 -73q0 -34 24 -50t59 -16z" />
    <glyph glyph-name="acircumflex.ss01" horiz-adv-x="551" 
d="M269 695l-68 -122h-104l110 197h124l110 -197h-104zM258 504q114 0 172 -43.5t58 -142.5v-318h-118l-4 60h-5q-18 -30 -56.5 -50t-88.5 -20q-72 0 -126.5 40.5t-54.5 121.5q0 32 11 66t41 98h274v8q0 41 -26 57.5t-77 16.5h-171v106h171zM251 90q71 0 110 74v65h-171
q-22 -48 -22 -73q0 -34 24 -50t59 -16z" />
    <glyph glyph-name="adieresis.ss01" horiz-adv-x="551" 
d="M168 610q-28 0 -48.5 20t-20.5 49q0 28 20.5 48t48.5 20t48 -20t20 -48t-20 -48.5t-48 -20.5zM370 610q-28 0 -48.5 20t-20.5 49q0 28 20.5 48t48.5 20t48 -20t20 -48t-20 -48.5t-48 -20.5zM258 504q114 0 172 -43.5t58 -142.5v-318h-118l-4 60h-5q-18 -30 -56.5 -50
t-88.5 -20q-72 0 -126.5 40.5t-54.5 121.5q0 32 11 66t41 98h274v8q0 41 -26 57.5t-77 16.5h-171v106h171zM251 90q71 0 110 74v65h-171q-22 -48 -22 -73q0 -34 24 -50t59 -16z" />
    <glyph glyph-name="agrave.ss01" horiz-adv-x="551" 
d="M325 577h-113l-130 117l113 80zM258 504q114 0 172 -43.5t58 -142.5v-318h-118l-4 60h-5q-18 -30 -56.5 -50t-88.5 -20q-72 0 -126.5 40.5t-54.5 121.5q0 32 11 66t41 98h274v8q0 41 -26 57.5t-77 16.5h-171v106h171zM251 90q71 0 110 74v65h-171q-22 -48 -22 -73
q0 -34 24 -50t59 -16z" />
    <glyph glyph-name="amacron.ss01" horiz-adv-x="551" 
d="M428 703v-104h-318v104h318zM258 504q114 0 172 -43.5t58 -142.5v-318h-118l-4 60h-5q-18 -30 -56.5 -50t-88.5 -20q-72 0 -126.5 40.5t-54.5 121.5q0 32 11 66t41 98h274v8q0 41 -26 57.5t-77 16.5h-171v106h171zM251 90q71 0 110 74v65h-171q-22 -48 -22 -73
q0 -34 24 -50t59 -16z" />
    <glyph glyph-name="aogonek.ss01" horiz-adv-x="551" 
d="M466 -106l63 -71q-48 -57 -118 -57q-50 0 -85.5 32t-35.5 85q0 80 79 125l-3 52h-5q-18 -30 -56.5 -50t-88.5 -20q-72 0 -126.5 40.5t-54.5 121.5q0 32 11 66t41 98h274v8q0 41 -26 57.5t-77 16.5h-171v106h171q114 0 172 -43.5t58 -142.5v-318h-5q-56 -6 -83.5 -32.5
t-27.5 -59.5q0 -21 11 -32t28 -11q30 0 55 29zM251 90q71 0 110 74v65h-171q-22 -48 -22 -73q0 -34 24 -50t59 -16z" />
    <glyph glyph-name="aring.ss01" horiz-adv-x="551" 
d="M269 554q-65 0 -111.5 45.5t-46.5 112.5q0 65 45.5 111.5t112.5 46.5q65 0 111.5 -45.5t46.5 -112.5q0 -66 -46 -112t-112 -46zM269 787q-31 0 -53 -21.5t-22 -53.5q0 -31 21.5 -53t53.5 -22q31 0 53 21.5t22 53.5q0 31 -21.5 53t-53.5 22zM258 504q114 0 172 -43.5
t58 -142.5v-318h-118l-4 60h-5q-18 -30 -56.5 -50t-88.5 -20q-72 0 -126.5 40.5t-54.5 121.5q0 32 11 66t41 98h274v8q0 41 -26 57.5t-77 16.5h-171v106h171zM251 90q71 0 110 74v65h-171q-22 -48 -22 -73q0 -34 24 -50t59 -16z" />
    <glyph glyph-name="atilde.ss01" horiz-adv-x="551" 
d="M196 627q-39 0 -52 -67l-94 39q33 132 136 132q34 0 60.5 -16.5t49 -32.5t45.5 -16q51 0 56 71l91 -37q-33 -134 -139 -134q-35 0 -63.5 15t-50 30.5t-39.5 15.5zM258 504q114 0 172 -43.5t58 -142.5v-318h-118l-4 60h-5q-18 -30 -56.5 -50t-88.5 -20q-72 0 -126.5 40.5
t-54.5 121.5q0 32 11 66t41 98h274v8q0 41 -26 57.5t-77 16.5h-171v106h171zM251 90q71 0 110 74v65h-171q-22 -48 -22 -73q0 -34 24 -50t59 -16z" />
    <glyph glyph-name="emdash.case" horiz-adv-x="1148" 
d="M74 320v130h1000v-130h-1000z" />
    <glyph glyph-name="endash.case" horiz-adv-x="686" 
d="M74 320v130h538v-130h-538z" />
    <glyph glyph-name="uni0308.case" 
d="M-327 826q-29 0 -49 20t-20 49q0 28 20.5 48t48.5 20t48 -20t20 -48t-20 -48.5t-48 -20.5zM-125 826q-29 0 -49 20t-20 49q0 28 20.5 48t48.5 20t48 -20t20 -48t-20 -48.5t-48 -20.5z" />
    <glyph glyph-name="uni0307.case" 
d="M-125 822q-29 0 -49 20t-20 49q0 28 20.5 48t48.5 20t48 -20t20 -48t-20 -48.5t-48 -20.5z" />
    <glyph glyph-name="gravecomb.case" 
d="M-132 843l-110 87l93 80l130 -167h-113z" />
    <glyph glyph-name="acutecomb.case" 
d="M-268 847l150 187l93 -80l-130 -107h-113z" />
    <glyph glyph-name="uni030B.case" 
d="M-375 843h-113l150 187l93 -80zM-155 843h-113l150 187l93 -80z" />
    <glyph glyph-name="uni0302.case" 
d="M-368 859l110 157h124l110 -157h-104l-68 82l-68 -82h-104z" />
    <glyph glyph-name="uni030C.case" 
d="M-258 849l-110 167h104l68 -92l68 92h104l-110 -167h-124z" />
    <glyph glyph-name="uni0306.case" 
d="M-213 818q-79 0 -131.5 50.5t-52.5 126.5v25h99v-25q0 -32 22.5 -55t54.5 -23t55 23t23 55v25h99v-25q0 -73 -50 -125t-119 -52z" />
    <glyph glyph-name="uni030A.case" 
d="M-199 740q-65 0 -111.5 45.5t-46.5 112.5q0 65 45.5 111.5t112.5 46.5q65 0 111.5 -45.5t46.5 -112.5q0 -66 -46 -112t-112 -46zM-199 823q31 0 53 21.5t22 53.5q0 31 -21.5 53t-53.5 22q-31 0 -53 -21.5t-22 -53.5q0 -31 21.5 -53t53.5 -22z" />
    <glyph glyph-name="tildecomb.case" 
d="M-384 816l-94 39q33 132 136 132q34 0 60.5 -16.5t49 -32.5t45.5 -16q51 0 56 71l91 -37q-33 -134 -139 -134q-35 0 -63.5 15t-50 30.5t-39.5 15.5q-39 0 -52 -67z" />
    <glyph glyph-name="uni0304.case" 
d="M-392 835v104h318v-104h-318z" />
    </font>
</defs>
</svg>
